Welcome Guest ( Log In | Register )

 
Reply to this topicStart new topic
> Disimperium - Malefic Obliteration [ep] (2021), Black/Death Metal/Grindcore
post Jul 23 2021, 14:40:09
Post #1

Правь статус, 616
**************
Group: Металариец
Posts: 7,222
Releases: 5651
From: 55°35’N 38°08’E
On Forums: 13 years 4 months
Thanks: 104126 time(s)
Unknown


(IMG:https://metalarea.org/images/audiocovers/2021_Jul/acov_tid353708_thumb.jpg)

*Artist: Disimperium
*Album: Malefic Obliteration [ep]
*Year: 2021
*Genre: Black/Death Metal/Grindcore
*Country: United States (IMG:https://metalarea.org/forum/style_images/flags/United%20States.png)
*Format: mp3@CBR320kbps
*Size: 28MB

Tracklist:
1.Malefic Obliteration 02:51
2.Fuming Nexus 03:13
3.Infernal Machine 05:53
******************************
Total playing time: 11:57

(IMG:https://metalarea.org/images/youtube.png)



Technical info
(IMG:https://metalarea.org/images/spectrogram/2021_Jul/8e5b3ae40496df73d5e624272d97e33d.png)
Input File: 02 Fuming Nexus.mp3
Channels : 2
Sample Rate : 44100
Precision : 16-bit
Duration : 00:03:12.93 = 8508125 samples = 14469.6 CDDA sectors
File Size : 7.82M
Bit Rate : 324k
Sample Encoding: MPEG audio (layer I, II or III)
Comments :
Title=Fuming Nexus
Artist=Disimperium
Album=Malefic Obliteration
Tracknumber=2
Year=2021
Genre=Metal



Register


Go to the top of the page
  Insert nick Quick quote
+Quote Post

Reply to this topicStart new topic
1 User(s) are reading this topic (1 Guests and 0 Anonymous Users)
0 Members:

 



- Lo-Fi Version Support form
Copyrights and abuse reports form
Time is now: 5th December 2021 - 03:43:39