Welcome Guest ( Log In | Register )

 
Reply to this topicStart new topic
> Desalmatvs - Manifestvm (2019), Black Metal
post Jul 24 2021, 00:55:31
Post #1

Правь статус, ####!616
**************
Group: Металариец
Posts: 7,184
Releases: 5616
From: 55°35’N 38°08’E
On Forums: 13 years 3 months
Thanks: 102365 time(s)
Unknown


(IMG:https://metalarea.org/images/audiocovers/2021_Jul/acov_tid353721_thumb.jpg)

*Artist: Desalmatvs
*Album: Manifestvm
*Year: 2019
*Genre: Black Metal
*Country: Colombia (IMG:https://metalarea.org/forum/style_images/flags/Colombia.png)
*Format: mp3@CBR320kbps
*Size: 92MB

Tracklist:
1.Invocacion del Desalmado 02:22
2.La llama Inmortal 04:15
3.Terrible Versículo Oscuro 04:27
4.La cima del Abismo 03:46
5.Holokauztion 03:50
6.ManifestvM 05:01
7.Bajo el Aro de la Noche Eterna 04:14
8.Tormenta Infernal 05:05
9.Outro 02:27
10.La Cima del Abismo (Live bonus track) 03:45
******************************
Total playing time: 39:12


(IMG:https://metalarea.org/images/youtube.png)


Technical info
(IMG:https://metalarea.org/images/spectrogram/2021_Jul/52ceb4c9edced11638983e7db4ac0673.png)
Input File: 02 La llama Inmortal.mp3
Channels : 2
Sample Rate : 44100
Precision : 16-bit
Duration : 00:04:15.86 = 11283426 samples = 19189.5 CDDA sectors
File Size : 10.4M
Bit Rate : 324k
Sample Encoding: MPEG audio (layer I, II or III)
Comments :
Title=La llama Inmortal
Artist=DESALMATVS
Album=Manifestvm
Tracknumber=2
Year=2021
Genre=Metal



Register


Go to the top of the page
  Insert nick Quick quote
+Quote Post

Reply to this topicStart new topic
2 User(s) are reading this topic (2 Guests and 0 Anonymous Users)
0 Members:

 



- Lo-Fi Version Support form
Copyrights and abuse reports form
Time is now: 16th October 2021 - 08:56:37