Welcome Guest ( Log In | Register )

 
Reply to this topicStart new topic
> Pagapu - Wanka Total Death [ep] (2021), Pagan Black/Death Metal (D4)
post Jul 24 2021, 01:12:17
Post #1

Правь статус, ####!616
**************
Group: Металариец
Posts: 7,218
Releases: 5651
From: 55°35’N 38°08’E
On Forums: 13 years 3 months
Thanks: 103246 time(s)
Unknown


(IMG:https://metalarea.org/images/audiocovers/2021_Jul/acov_tid353722_thumb.jpg)

*Artist: Pagapu
*Album: Wanka Total Death [ep]
*Year: 2021
*Genre: Pagan Black/Death Metal
*Country: Peru (IMG:https://metalarea.org/forum/style_images/flags/Peru.png)
*Format: mp3@CBR320kbps
*Size: 125MB

Tracklist:
1.Pleasure Of Death 03:57
2.Raza Demencial 03:00
3.Blood Enemy 04:31
4.Winds Of War 05:33
5.A mi Muerte 06:52
6.Tormenta 05:56
7.Días de Ira 04:29
8.Wanka Attack 06:02
9.Hate And War 04:58
10.Final Day 04:41
11.Possession 03:30
******************************
Total playing time: 53:29



Extended info
Tracks 1-5 - EP Wanka Total Death.
Tracks 6-7 taken from "Arte, Magia y Sangre" demo (2003).
Tracks 8-9 taken from "War" demo (2005).
Tracks 10-11 taken from "Death Possession Armageddon" unreleased demo/rehearsal.


Technical info
(IMG:https://metalarea.org/images/spectrogram/2021_Jul/710c5a82f2255a6c06b9847285ccc203.png)
Input File: 01 Pleasure Of Death.mp3
Channels : 2
Sample Rate : 44100
Precision : 16-bit
Duration : 00:03:57.26 = 10463166 samples = 17794.5 CDDA sectors
File Size : 9.65M
Bit Rate : 325k
Sample Encoding: MPEG audio (layer I, II or III)
Comments :
Title=Pleasure Of Death
Artist=PAGAPU
Album=Wanka Total Death
Tracknumber=1
Year=2021
Genre=Metal



Register


Go to the top of the page
  Insert nick Quick quote
+Quote Post

Reply to this topicStart new topic
2 User(s) are reading this topic (2 Guests and 0 Anonymous Users)
0 Members:

 



- Lo-Fi Version Support form
Copyrights and abuse reports form
Time is now: 28th October 2021 - 21:36:00