Welcome Guest ( Log In | Register )

> И неформату есть предел.

Рэп/хип-хоп/шансон/поп удаляются. Для них есть свои порталы.

> The Birthday Party - Mutiny/The Bad Seed [compilation] (1989), Post Punk
post Jul 24 2021, 08:11:30
Post #1

Враг Газпрома
**************
Group: Металариец
Posts: 6,601
Releases: 0
On Forums: 12 years 4 months
Thanks: 2773 time(s)
Russian Federation


(IMG:https://metalarea.org/images/audiocovers/2021_Jul/acov_tid353729_thumb.jpg)

*Artist: The Birthday Party
*Album: Mutiny/The Bad Seed [compilation]
*Year: 1989
*Genre: Post Punk
*Country: Australia (IMG:https://metalarea.org/forum/style_images/flags/Australia.png)
*Format: mp3@CBR320kbps
*Size: 89MB

Tracklist:
1. Sonny's Burning 3:20
2. Wildworld 3:27
3. Fears of Gun 3:54
4. Deep in the Woods 4:49
5. Jennifer's Veil 4:57
6. Six Strings That Drew Blood 3:32
7. Say a Spell 3:41
8. Swampland 3:30
9. Pleasure Avalanche 4:22
10. Mutiny in Heaven 4:16
******************************
Total playing time: 39:48

Technical info
(IMG:https://metalarea.org/images/spectrogram/2021_Jul/28c9d646717a5143809e7669869633a1.png)
Input File: 06 - Six Strings That Drew Blood.mp3
Channels : 2
Sample Rate : 44100
Precision : 16-bit
Duration : 00:03:35.09 = 9485337 samples = 16131.5 CDDA sectors
File Size : 8.72M
Bit Rate : 324k
Sample Encoding: MPEG audio (layer I, II or III)
Comments :
Title=Six Strings That Drew Blood
Artist=The Birthday Party
Album=The Mutiny Sessions
Tracknumber=6
Year=1983
Genre=Rock
Discnumber=1



Register


Go to the top of the page
  Insert nick Quick quote
+Quote Post
 
Start new topic
Replies (1 - 5)
post Jul 25 2021, 16:37:51
Post #2

Group: Подсевший
Posts: 38
Releases: 0
On Forums: 3 months 1 week
Thanks: 33 time(s)
Unknown


несколько неожиданно увидеть это в заглавном топике. у меня даже прям сердце на секунду замерло. ))


Thanks:
(1) vam1972,
Go to the top of the page
  Insert nick Quick quote
+Quote Post
post Jul 25 2021, 16:45:48
Post #3

Враг Газпрома
**************
Group: Металариец
Posts: 6,601
Releases: 0
On Forums: 12 years 4 months
Thanks: 2773 time(s)
Russian Federation


ЦИТАТА(seal @ Jul 25 2021, 18:37:51) *
несколько неожиданно увидеть это в заглавном топике. у меня даже прям сердце на секунду замерло. ))

Для меня тоже, поскольку диск стопроцентно неформатный. Попросил уже модераторов переместить тему в неформат. Пока ответа нет...
Go to the top of the page
  Insert nick Quick quote
+Quote Post
post Jul 25 2021, 18:17:40
Post #4

Group: Подсевший
Posts: 38
Releases: 0
On Forums: 3 months 1 week
Thanks: 33 time(s)
Unknown


Wildworld ) сказать вам честно я бы выбрал для поста здесь ту их пластинку где песня мистер кларнет.
Go to the top of the page
  Insert nick Quick quote
+Quote Post
post Jul 26 2021, 01:46:09
Post #5

Враг Газпрома
**************
Group: Металариец
Posts: 6,601
Releases: 0
On Forums: 12 years 4 months
Thanks: 2773 time(s)
Russian Federation


ЦИТАТА(seal @ Jul 25 2021, 20:17:40) *
Wildworld ) сказать вам честно я бы выбрал для поста здесь ту их пластинку где песня мистер кларнет.

The Birthday Party - Hee-Haw (1989)


Thanks:
(1) seal,
Go to the top of the page
  Insert nick Quick quote
+Quote Post
post Jul 29 2021, 15:44:27
Post #6

Враг Газпрома
**************
Group: Металариец
Posts: 6,601
Releases: 0
On Forums: 12 years 4 months
Thanks: 2773 time(s)
Russian Federation


Работы The Birthday Party для меня - настоящий пост-панк, или, точнее, то, как я понимаю этот стиль. Не готик-рок the Cure, не вкусные мелодии среднего периода Siouxsie and the Banshees, а очень некомфортная, ломающая депрессивная музыка работ первых групп Кейва (хотя, без упоминания Joy Division этот стиль был бы однозначно неполон). И как Кейв провел всю свою жизнь (ну, так мне кажется), так он и пел свои песни: бухал и беспределил (Swampland, Sonny's Burning), жалел себя, находясь в пустопорожнем похмелье и депрессухе (Wildworld ), а периодически, завязывая на некоторое время, пытался воспитывать детей и рассказывать им сказки (Deep in the Woods, Jennifer's Veil). "Только сказочка х...вая, и конец у ней неправильный...". И насколько в основном Кейву удавалось создавать для слушателя некомфортную музыкальную атмосферу в цело, настолько же у него и получалось создавать классные мелодии, например, частями в тех самых Deep in the Woods, Jennifer's Veil. И заодно сделать стилистический мостик к своей следующей группе в Pleasure Avalanche и Mutiny in Heaven
Итог: на настоящих ценителей жанра и желающих узнать, что делал Кейв до Were the wild Roses grow.


Thanks:
(1) ent404,
Go to the top of the page
  Insert nick Quick quote
+Quote Post

Reply to this topicStart new topic
1 User(s) are reading this topic (1 Guests and 0 Anonymous Users)
0 Members:

 



- Lo-Fi Version Support form
Copyrights and abuse reports form
Time is now: 23rd October 2021 - 20:36:20