Welcome Guest ( Log In | Register )

 
Reply to this topicStart new topic
> Constrictor - Condenado [demo] (2017), Death/Thrash Metal (D6)
post Jul 24 2021, 18:13:41
Post #1

Правь статус, ####!616
**************
Group: Металариец
Posts: 6,990
Releases: 5442
From: 55°35’N 38°08’E
On Forums: 13 years 2 months
Thanks: 99659 time(s)
Unknown


(IMG:https://metalarea.org/images/audiocovers/2021_Jul/acov_tid353739_thumb.jpg)

*Artist: Constrictor
*Album: Condenado [demo]
*Year: 2017
*Genre: Death/Thrash Metal
*Country: Peru (IMG:https://metalarea.org/forum/style_images/flags/Peru.png)
*Format: mp3@CBR320kbps
*Size: 63MB

Tracklist:
1.Peste 05:14
2.Asesino 04:02
3.Vicios Eternos 02:55
4.Días de Muerte 03:00
5.Condenado 03:08
6.Vísceras (Bonus track) 04:35
7.Superstición (Live bonus track) 03:48
******************************
Total playing time: 26:42




Technical info
(IMG:https://metalarea.org/images/spectrogram/2021_Jul/e9dafe7792f6be16224f51e2f3c71781.png)
Input File: 01 Peste.mp3
Channels : 2
Sample Rate : 44100
Precision : 16-bit
Duration : 00:05:14.85 = 13884797 samples = 23613.6 CDDA sectors
File Size : 12.7M
Bit Rate : 323k
Sample Encoding: MPEG audio (layer I, II or III)
Comments :
Title=Peste
Artist=CONSTRICTOR
Album=Condenado
Tracknumber=1
Year=2021
Genre=Metal



Register


Go to the top of the page
  Insert nick Quick quote
+Quote Post

Reply to this topicStart new topic
1 User(s) are reading this topic (1 Guests and 0 Anonymous Users)
0 Members:

 



- Lo-Fi Version Support form
Copyrights and abuse reports form
Time is now: 25th September 2021 - 13:50:26