Welcome Guest ( Log In | Register )

> Fuel For Nightmares - Implexion (2021), Modern Death Metal
post Jul 24 2021, 18:21:19
Post #1

Правь статус, ####!111
**************
Group: Металариец
Posts: 27,431
Releases: 19916
From: Г.Харьков
On Forums: 9 years 4 months
Thanks: 401787 time(s)
Unknown


(IMG:https://metalarea.org/images/audiocovers/2021_Jul/acov_tid353740_thumb.jpg)

*Artist: Fuel For Nightmares
*Album: Implexion
*Year: 2021
*Genre: Modern Death Metal
*Country: Sweden (IMG:https://metalarea.org/forum/style_images/flags/Sweden.png)
*Format: mp3@CBR320kbps
*Size: 81MB

Tracklist:
01. As the Flame Swallows
02. A Farewell
03. The Omega Thesis
04. Human Self Combustion
05. Departure of Entities
06. Perception of Dismal
07. The Idiot Machine (feat. Teddy Moller)
08. Execute Nothingness (feat. Teddy Moller)
09. The Dead End (feat. Jens C Mortensen)
******************************
Total playing time: 34:58

(IMG:https://metalarea.org/images/youtube.png)
(IMG:https://metalarea.org/images/youtube.png)

Technical info
(IMG:https://metalarea.org/images/spectrogram/2021_Jul/f48e57eb18a5ed2635b8a61ddfe77bf0.png)
Input File: 04 - Human self combustion.mp3
Channels : 2
Sample Rate : 44100
Precision : 16-bit
Duration : 00:04:28.00 = 11818800 samples = 20100 CDDA sectors
File Size : 10.8M
Bit Rate : 324k
Sample Encoding: MPEG audio (layer I, II or III)
Comments :
Title=Human self combustion
Artist=Fuel for Nightmares
Album=Implexion
Tracknumber=4
Year=2021-07-24
Genre=Metal
Discnumber=1



Register


Go to the top of the page
  Insert nick Quick quote
+Quote Post
 
Start new topic
Replies (1 - 1)
post Sep 18 2021, 17:21:01
Post #2

Old School Metal
**************
Group: Металариец
Posts: 4,028
Releases: 0
From: г. Минск
On Forums: 12 years 6 months
Thanks: 9591 time(s)
Belarus


Lossless: FLAC (tracks)
Register
Go to the top of the page
  Insert nick Quick quote
+Quote Post

Reply to this topicStart new topic
2 User(s) are reading this topic (2 Guests and 0 Anonymous Users)
0 Members:

 



- Lo-Fi Version Support form
Copyrights and abuse reports form
Time is now: 25th September 2021 - 14:40:11