Welcome Guest ( Log In | Register )

 
Reply to this topicStart new topic
> Hands Of Doom - Cahuideath [demo] (2020), Thrash/Black Metal
post Jul 24 2021, 18:33:54
Post #1

Правь статус, ####!616
**************
Group: Металариец
Posts: 7,218
Releases: 5651
From: 55°35’N 38°08’E
On Forums: 13 years 3 months
Thanks: 103249 time(s)
Unknown


(IMG:https://metalarea.org/images/audiocovers/2021_Jul/acov_tid353741_thumb.jpg)

*Artist: Hands Of Doom
*Album: Cahuideath [demo]
*Year: 2020
*Genre: Thrash/Black Metal
*Country: Peru (IMG:https://metalarea.org/forum/style_images/flags/Peru.png)
*Format: mp3@CBR320kbps
*Size: 64MB

Tracklist:
1.Hands Of Doom 08:18
2.Attila The Hun 06:56
3.Raw War 04:56
4.Cahuideath 06:49
******************************
Total playing time: 26:59




Extended info
Unreleased demo advance from 2010.


Technical info
(IMG:https://metalarea.org/images/spectrogram/2021_Jul/4a5caeb354bd6ae1e000311b378ac57d.png)
Input File: 01 Hands Of Doom.mp3
Channels : 2
Sample Rate : 44100
Precision : 16-bit
Duration : 00:08:18.34 = 21976882 samples = 37375.6 CDDA sectors
File Size : 20.1M
Bit Rate : 323k
Sample Encoding: MPEG audio (layer I, II or III)
Comments :
Title=Hands Of Doom
Artist=HANDS OF DOOM
Album=Cahuideath
Tracknumber=1
Year=2020
Genre=Metal



Register


Go to the top of the page
  Insert nick Quick quote
+Quote Post

Reply to this topicStart new topic
1 User(s) are reading this topic (1 Guests and 0 Anonymous Users)
0 Members:

 



- Lo-Fi Version Support form
Copyrights and abuse reports form
Time is now: 28th October 2021 - 22:29:35