Welcome Guest ( Log In | Register )

 
Reply to this topicStart new topic
> Necrovomit - Devotion To Death [compilation] (2020), Black/Thrash Metal (D7)
post Jul 24 2021, 19:36:22
Post #1

Правь статус, ####!616
**************
Group: Металариец
Posts: 7,218
Releases: 5651
From: 55°35’N 38°08’E
On Forums: 13 years 3 months
Thanks: 103246 time(s)
Unknown


(IMG:https://metalarea.org/images/audiocovers/2021_Jul/acov_tid353744_thumb.jpg)

*Artist: Necrovomit
*Album: Devotion To Death [compilation]
*Year: 2020
*Genre: Black/Thrash Metal
*Country: Peru (IMG:https://metalarea.org/forum/style_images/flags/Peru.png)
*Format: mp3@CBR320kbps
*Size: 82MB

Tracklist:
1.Crushfuck Invocation 04:24
2.Inherited Torment 02:56
3.Mercenary Cremation 03:25
4.Sabbat Ritual 02:10
5.Funeral To The Death Soldiers 03:16
6.Baphomet Revenge 01:49
7.Crushfuck Invocation 04:30
8.Mercernary Cremation 03:26
9.Temple Of Wisdom 03:27
10.Warcommand Holocaust 05:07
******************************
Total playing time: 34:30




Extended info
Tracks 1-2 taken from "Devotion to Death" EP, 2017.
Tracks 3-6 taken from "Demo II" 2016.
Tracks 7-10 taken from "Temple of Wisdom" Demo, 2016.


Technical info
(IMG:https://metalarea.org/images/spectrogram/2021_Jul/af601449a6c05d8d8837d2bc877c9226.png)
Input File: 01 Crushfuck Invocation.mp3
Channels : 2
Sample Rate : 44100
Precision : 16-bit
Duration : 00:04:24.30 = 11655542 samples = 19822.4 CDDA sectors
File Size : 10.8M
Bit Rate : 328k
Sample Encoding: MPEG audio (layer I, II or III)
Comments :
Title=Crushfuck Invocation
Artist=NECROVOMIT
Album=Devotion To Death
Tracknumber=1
Year=2020
Genre=Metal



Register


Go to the top of the page
  Insert nick Quick quote
+Quote Post

Reply to this topicStart new topic
1 User(s) are reading this topic (1 Guests and 0 Anonymous Users)
0 Members:

 



- Lo-Fi Version Support form
Copyrights and abuse reports form
Time is now: 28th October 2021 - 21:36:43