Welcome Guest ( Log In | Register )

> Serpentrance - Akra Tapeinosis (2021), Black/Death/Doom Metal
post Jul 25 2021, 13:57:06
Post #1

Правь статус, ####!616
**************
Group: Металариец
Posts: 7,184
Releases: 5615
From: 55°35’N 38°08’E
On Forums: 13 years 3 months
Thanks: 102356 time(s)
Unknown


(IMG:https://metalarea.org/images/audiocovers/2021_Jul/acov_tid353751_thumb.jpg)

*Artist: Serpentrance
*Album: Akra Tapeinosis
*Year: 2021
*Genre: Black/Death/Doom Metal
*Country: Russian Federation (IMG:https://metalarea.org/forum/style_images/flags/Russian%20Federation.png)
*Format: mp3@CBR320kbps
*Size: 99MB

Tracklist:
1.Vomit & Myrrh 07:34
2.Cloathed in Abomination 07:38
3.The Tarnished Shrines of God 07:14
4.Underneath Babylon 11:35
5.The Black Dawn of Sophia 09:10
******************************
Total playing time: 43:11




Technical info
(IMG:https://metalarea.org/images/spectrogram/2021_Jul/18ab53d8afdf731c80adfec857c7c67a.png)
Input File: 01 Vomit & Myrrh.mp3
Channels : 2
Sample Rate : 44100
Precision : 16-bit
Duration : 00:07:34.59 = 20047199 samples = 34093.9 CDDA sectors
File Size : 18.3M
Bit Rate : 322k
Sample Encoding: MPEG audio (layer I, II or III)
Comments :
Title=Vomit & Myrrh
Artist=SERPENTRANCE
Album=Akra Tapeinosis
Tracknumber=1
Year=2021
Genre=Black/Death Metal



Register


Go to the top of the page
  Insert nick Quick quote
+Quote Post
 
Start new topic
Replies (1 - 3)
post Jul 26 2021, 13:56:52
Post #2

Три Литра
***
Group: Завсегдатай
Posts: 230
Releases: 0
From: GREAT TARTARIA
On Forums: 10 years 8 months
Thanks: 90 time(s)
Unknown


Как же утомил этот иудей и весь каргофольклор вокруг него.
Go to the top of the page
  Insert nick Quick quote
+Quote Post
post Jul 26 2021, 17:57:26
Post #3

Full-of-Hate
**************
Group: Металариец
Posts: 4,514
Releases: 0
From: Moscow
On Forums: 12 years 3 months
Thanks: 4795 time(s)
Russian Federation


В копилку с Pseudogod и Ill Omened.
Классный, достаточно медитативный альбом, ритуальный. Господа музыканты не демонстрируют нам особых скоростей, хотя очень даже умеют с ними обращаться, а вот создать отравляющий, ядовито-кислотный, такой вот тягуче-склизко-липкий материал, утягивающий на дно цистерны с кипящим мазутом, получилось на все 666%.


Go to the top of the page
  Insert nick Quick quote
+Quote Post
post Sep 6 2021, 11:59:04
Post #4

Самый Тихий Час
**************
Group: Металариец
Posts: 6,702
Releases: 8
On Forums: 11 years 11 months
Thanks: 3171 time(s)
Unknown


Годнота-Goat'нота (IMG:style_emoticons/default/true_black.gif)
напрашиваются сравнения с одиозными испанцами, что очень хорошо. и c Grave Upheaval пожалуй...
Go to the top of the page
  Insert nick Quick quote
+Quote Post

Reply to this topicStart new topic
1 User(s) are reading this topic (1 Guests and 0 Anonymous Users)
0 Members:

 



- Lo-Fi Version Support form
Copyrights and abuse reports form
Time is now: 16th October 2021 - 03:41:00