Welcome Guest ( Log In | Register )

> Windischer - Gottscheer (2018), Black Metal
post Jul 25 2021, 15:15:15
Post #1

KPN 666
**************
Group: Металариец
Posts: 2,735
Releases: 1321
From: Тегеран
On Forums: 12 years 2 months
Thanks: 19049 time(s)
Iran


(IMG:http://metalarea.org/images/audiocovers/2021_Jul/acov_tid353753_thumb.jpg)

*Artist: Windischer
*Album: Gottscheer
*Year: 2018
*Genre: Black Metal
*Country: Slovenia (IMG:http://metalarea.org/forum/style_images/flags/Slovenia.png)
*Format: mp3@CBR320kbps
*Size: 74MB

Tracklist:
01. Vra Shünna
02. Pain Roashnprünn
03. Oin Höimöt
04. Da Meerarin
05. Marlschtoin
06. Linden Burns (BMAC)
******************************
Total playing time: 32:12



Technical info
(IMG:http://metalarea.org/images/spectrogram/2021_Jul/dfc5bf371ad91d7fe6b4fc58276fe27c.png)
Input File: 04. Da Meerarin.mp3
Channels : 2
Sample Rate : 44100
Precision : 16-bit
Duration : 00:00:00.26 = 11466 samples = 19.5 CDDA sectors
File Size : 10.5M
Bit Rate : 324M
Sample Encoding: MPEG audio (layer I, II or III)
Comments :
Title=Da Meerarin
Artist=Windischer
Album=Gottscheer
Tracknumber=4
Year=2018-03-16
Genre=Metal
Discnumber=1



Register


Go to the top of the page
  Insert nick Quick quote
+Quote Post
 
Start new topic
Replies (1 - 1)
post Aug 3 2021, 09:45:48
Post #2

0%Tolerance
**********
Group: Металариец
Posts: 1,318
Releases: 0
On Forums: 9 years 1 week
Thanks: 233 time(s)
Unknown


Дебют (этот альбом) не менее интересен, чем последующий '20 года (крайний). Не слишком сложная музыкальная конструкция как тут, так и там, но цепляет слух на всём протяжении альбома. Взял на заметку группу и оставил в коллекции два альбома.
Go to the top of the page
  Insert nick Quick quote
+Quote Post

Reply to this topicStart new topic
2 User(s) are reading this topic (2 Guests and 0 Anonymous Users)
0 Members:

 



- Lo-Fi Version Support form
Copyrights and abuse reports form
Time is now: 25th September 2021 - 14:19:51