Welcome Guest ( Log In | Register )

 
Reply to this topicStart new topic
> Darkened Winter - Fate Of The Norns [demo] (2013), Black Metal/Ambient (D)
post Jul 27 2021, 17:02:18
Post #1

KPN 666
**************
Group: Металариец
Posts: 2,730
Releases: 1316
From: Тегеран
On Forums: 12 years 2 months
Thanks: 18924 time(s)
Iran


(IMG:http://metalarea.org/images/audiocovers/2021_Jul/acov_tid353777_thumb.jpg)

*Artist: Darkened Winter
*Album: Fate Of The Norns [demo]
*Year: 2013
*Genre: Black Metal/Ambient
*Country: Australia (IMG:http://metalarea.org/forum/style_images/flags/Australia.png)
*Format: mp3@CBR320kbps
*Size: 39MB

Tracklist:
01. Beneath the Tree of Life 3:30
02. Fate of the Norns 13:42
******************************
Total playing time: 17:12

Technical info
(IMG:http://metalarea.org/images/spectrogram/2021_Jul/58db9c52f4d5d279f5fba401b0bfc499.png)
Input File: 01. Beneath the Tree of Life.mp3
Channels : 2
Sample Rate : 44100
Precision : 16-bit
Duration : 00:00:00.21 = 9261 samples = 15.75 CDDA sectors
File Size : 8.51M
Bit Rate : 324M
Sample Encoding: MPEG audio (layer I, II or III)
Comments :
Title=Beneath the Tree of Life (Instrumental)
Artist=Darkened Winter
Album=Fate of the Norns
Tracknumber=1
Year=2013-06-01
Genre=Metal
Discnumber=1



Register


Go to the top of the page
  Insert nick Quick quote
+Quote Post

Reply to this topicStart new topic
1 User(s) are reading this topic (1 Guests and 0 Anonymous Users)
0 Members:

 



- Lo-Fi Version Support form
Copyrights and abuse reports form
Time is now: 16th September 2021 - 22:59:52