Welcome Guest ( Log In | Register )

 
Reply to this topicStart new topic
> Darkened Winter - Upon The Ravens Call (2016), Black Metal/Ambient (D)
post Jul 27 2021, 17:19:29
Post #1

KPN 666
**************
Group: Металариец
Posts: 2,743
Releases: 1329
From: Тегеран
On Forums: 12 years 3 months
Thanks: 19189 time(s)
Iran


(IMG:http://metalarea.org/images/audiocovers/2021_Jul/acov_tid353779_thumb.jpg)

*Artist: Darkened Winter
*Album: Upon The Ravens Call
*Year: 2016
*Genre: Black Metal/Ambient
*Country: Australia (IMG:http://metalarea.org/forum/style_images/flags/Australia.png)
*Format: mp3@CBR320kbps
*Size: 106MB

Tracklist:
01. Upon the Ravens Call 9:15
02. The Kings Mirror 10:04
03. Wolves 8:18
04. Of Cold Blood 9:32
05. A Path to Exile 9:34
******************************
Total playing time: 46:43



Technical info
(IMG:http://metalarea.org/images/spectrogram/2021_Jul/8b4bc3638dcb632fa085e8926c627a92.png)
Input File: 03. Wolves.mp3
Channels : 2
Sample Rate : 44100
Precision : 16-bit
Duration : 00:00:00.50 = 21962 samples = 37.3503 CDDA sectors
File Size : 20.0M
Bit Rate : 322M
Sample Encoding: MPEG audio (layer I, II or III)
Comments :
Title=Wolves
Artist=Darkened Winter
Album=Upon the Ravens Call
Tracknumber=3
Year=2016-03-31
Genre=Metal
Discnumber=1



Register


Go to the top of the page
  Insert nick Quick quote
+Quote Post

Reply to this topicStart new topic
1 User(s) are reading this topic (1 Guests and 0 Anonymous Users)
0 Members:

 



- Lo-Fi Version Support form
Copyrights and abuse reports form
Time is now: 23rd October 2021 - 21:04:38