Welcome Guest ( Log In | Register )

 
Reply to this topicStart new topic
> Darkened Winter - Dark Age Warfare (2017), Black Metal/Ambient (D)
post Jul 27 2021, 17:35:16
Post #1

KPN 666
**************
Group: Металариец
Posts: 2,735
Releases: 1321
From: Тегеран
On Forums: 12 years 2 months
Thanks: 19048 time(s)
Iran


(IMG:http://metalarea.org/images/audiocovers/2021_Jul/acov_tid353780_thumb.jpg)

*Artist: Darkened Winter
*Album: Dark Age Warfare
*Year: 2017
*Genre: Black Metal/Ambient
*Country: Australia (IMG:http://metalarea.org/forum/style_images/flags/Australia.png)
*Format: mp3@CBR320kbps
*Size: 71MB

Tracklist:
01. The Empire Has Fallen 4:40
02. Dark Age Warfare 8:38
03. Winds of Death 11:42
04. 1350 6:10
******************************
Total playing time: 31:10



Technical info
(IMG:http://metalarea.org/images/spectrogram/2021_Jul/9e7d2c36eee6482011f9d19176c328d7.png)
Input File: 01. The Empire Has Fallen.mp3
Channels : 2
Sample Rate : 44100
Precision : 16-bit
Duration : 00:00:00.28 = 12172 samples = 20.7007 CDDA sectors
File Size : 11.2M
Bit Rate : 325M
Sample Encoding: MPEG audio (layer I, II or III)
Comments :
Title=The Empire Has Fallen (Instrumental)
Artist=Darkened Winter
Album=Dark Age Warfare
Tracknumber=1
Year=2017-02-01
Genre=Metal
Discnumber=1



Register


Go to the top of the page
  Insert nick Quick quote
+Quote Post

Reply to this topicStart new topic
2 User(s) are reading this topic (2 Guests and 0 Anonymous Users)
0 Members:

 



- Lo-Fi Version Support form
Copyrights and abuse reports form
Time is now: 25th September 2021 - 12:47:07