Welcome Guest ( Log In | Register )

 
Reply to this topicStart new topic
> Darkened Winter - Hel (2018), Black Metal/Ambient (D)
post Jul 27 2021, 17:41:28
Post #1

KPN 666
**************
Group: Металариец
Posts: 2,743
Releases: 1329
From: Тегеран
On Forums: 12 years 3 months
Thanks: 19189 time(s)
Iran


(IMG:http://metalarea.org/images/audiocovers/2021_Jul/acov_tid353781_thumb.jpg)

*Artist: Darkened Winter
*Album: Hel
*Year: 2018
*Genre: Black Metal/Ambient
*Country: Australia (IMG:http://metalarea.org/forum/style_images/flags/Australia.png)
*Format: mp3@CBR320kbps
*Size: 96MB

Tracklist:
01. The Birth of Destruction 8:26
02. Once Above, Cast Below 8:09
03. Where Hatred Dwells 4:30
04. Mourning Star 6:28
05. Towards the Gates of Hel 6:25
06. Prophecies of the End 8:13
******************************
Total playing time: 42:11



Technical info
(IMG:http://metalarea.org/images/spectrogram/2021_Jul/945b27285761be3778a8b2692ef33909.png)
Input File: 03. Where Hatred Dwells.mp3
Channels : 2
Sample Rate : 44100
Precision : 16-bit
Duration : 00:00:00.27 = 11907 samples = 20.25 CDDA sectors
File Size : 11.0M
Bit Rate : 325M
Sample Encoding: MPEG audio (layer I, II or III)
Comments :
Title=Where Hatred Dwells
Artist=Darkened Winter
Album=Hel
Tracknumber=3
Year=2018-07-13
Genre=Metal
Discnumber=1



Register


Go to the top of the page
  Insert nick Quick quote
+Quote Post

Reply to this topicStart new topic
1 User(s) are reading this topic (1 Guests and 0 Anonymous Users)
0 Members:

 



- Lo-Fi Version Support form
Copyrights and abuse reports form
Time is now: 23rd October 2021 - 21:47:11