Welcome Guest ( Log In | Register )

> Wolfstavar - Im Schatten Der Götter (2021), Folk Metal
post Jul 29 2021, 11:53:38
Post #1

Правь статус, ####!111
**************
Group: Металариец
Posts: 27,685
Releases: 20124
From: Г.Харьков
On Forums: 9 years 5 months
Thanks: 407434 time(s)
Unknown


(IMG:https://metalarea.org/images/audiocovers/2021_Jul/acov_tid353840_thumb.jpg)

*Artist: Wolfstavar
*Album: Im Schatten Der Götter
*Year: 2021
*Genre: Folk Metal
*Country: Germany (IMG:https://metalarea.org/forum/style_images/flags/Germany.png)
*Format: mp3@CBR320kbps
*Size: 119MB

Tracklist:
1. Auf nach Walhalla
2. Tyr
3. Heimdall - Der Wächter
4. Der Freiheit entgegen
5. Ruf des Nordens
6. Hymirs Versagen
7. Thors List
8. Zeitendämmerung
9. Mimirs Weisheit
******************************
Total playing time: 51:50



Extended info
Stephan Treibl Bagpipes
Stefan "Toge" Kolke Drums
Jörg Westphal Guitars, Vocals (backing)
Holger Schleinitz Guitars, Vocals (backing)
Sascha "Malo" Klemm Vocals
Rico "Don" Müller Bass


Technical info
(IMG:https://metalarea.org/images/spectrogram/2021_Jul/133e87cf2196f92555ef69e0c57fe716.png)
Input File: 07 - Thors List.mp3
Channels : 2
Sample Rate : 44100
Precision : 16-bit
Duration : 00:04:08.31 = 10950471 samples = 18623.2 CDDA sectors
File Size : 9.94M
Bit Rate : 320k
Sample Encoding: MPEG audio (layer I, II or III)
Comments :
Title=Thors List
Artist=Wolfstavar
Album=Im Schatten der Götter
Tracknumber=7
Year=2021



Register


Go to the top of the page
  Insert nick Quick quote
+Quote Post
 
Start new topic
Replies (1 - 5)
post Jul 30 2021, 11:49:36
Post #2

Шесть Литров
******
Group: Металариец
Posts: 518
Releases: 21
From: Подольск
On Forums: 12 years 4 months
Thanks: 819 time(s)
Russian Federation


образец творчества
Go to the top of the page
  Insert nick Quick quote
+Quote Post
post Jul 30 2021, 15:59:03
Post #3

Добрый язычник
*********
Group: Металариец
Posts: 955
Releases: 11
From: Санкт-Петербург
On Forums: 15 years 10 months
Thanks: 316 time(s)
Russian Federation


Фигня какая то.
Go to the top of the page
  Insert nick Quick quote
+Quote Post
post Jul 31 2021, 11:27:18
Post #4

Ёлд ХеллоВяйне
Group Icon
Group: V.I.P
Posts: 32,192
Releases: 144
From: Питер
On Forums: 14 years 11 months
Thanks: 20166 time(s)
Russian Federation


QUOTE(Nordavind @ 30th July 2021 - 17:59:03) *
Фигня какая то.


Это в целом о немецком фолке.
Go to the top of the page
  Insert nick Quick quote
+Quote Post
post Aug 1 2021, 08:45:31
Post #5

0%Tolerance
**********
Group: Металариец
Posts: 1,384
Releases: 0
On Forums: 9 years 1 month
Thanks: 253 time(s)
Unknown


Жиденький викинг митал.
Go to the top of the page
  Insert nick Quick quote
+Quote Post
post Aug 3 2021, 08:58:36
Post #6

Перевозчик
**************
Group: Металариец
Posts: 3,326
Releases: 0
On Forums: 13 years 3 months
Thanks: 745 time(s)
Russian Federation


Для тех, кто любит дудки и немецкий. Ничего ужасного не замечено, хоть и далеко не топ.
Go to the top of the page
  Insert nick Quick quote
+Quote Post

Reply to this topicStart new topic
1 User(s) are reading this topic (1 Guests and 0 Anonymous Users)
0 Members:

 



- Lo-Fi Version Support form
Copyrights and abuse reports form
Time is now: 20th October 2021 - 15:11:28