Welcome Guest ( Log In | Register )

> Releases Upload / Добавление релизов

Добавить релиз тут / Click here to add release
Рекомендованные обменники / Recommended file shares

> Phåge - Кривжа (2021), Black Metal
post Jul 29 2021, 12:07:02
Post #1

Правь статус, ####!616
**************
Group: Металариец
Posts: 6,989
Releases: 5430
From: 55°35’N 38°08’E
On Forums: 13 years 2 months
Thanks: 99600 time(s)
Unknown


(IMG:https://metalarea.org/images/audiocovers/2021_Jul/acov_tid353844_thumb.jpg)

*Artist: Phåge
*Album: Кривжа
*Year: 2021
*Genre: Black Metal
*Country: Kazakhstan (IMG:https://metalarea.org/forum/style_images/flags/Kazakhstan.png)
*Format: mp3@CBR320kbps
*Size: 86MB

Tracklist:
1.Планина 04:53
2.Смърт 04:54
3.Тъмнина 05:48
4.Рояк 02:46
5.Мъгла 05:58
6.Мечка 09:53
******************************
Total playing time: 34:12



Technical info
(IMG:https://metalarea.org/images/spectrogram/2021_Jul/f912699d435abc2afdec2449e9ed2a07.png)
Input File: 01 Планина.mp3
Channels : 2
Sample Rate : 44100
Precision : 16-bit
Duration : 00:04:53.82 = 12957374 samples = 22036.4 CDDA sectors
File Size : 11.9M
Bit Rate : 324k
Sample Encoding: MPEG audio (layer I, II or III)
Comments :
Title=Планина
Artist=Phåge
Album=Кривжа
Tracknumber=1
Year=2021
Genre=Black Metal



Register


Go to the top of the page
  Insert nick Quick quote
+Quote Post
 
Start new topic
Replies (1 - 4)
post Jul 30 2021, 09:30:33
Post #2

0%Tolerance
**********
Group: Металариец
Posts: 1,318
Releases: 0
On Forums: 9 years 1 week
Thanks: 232 time(s)
Unknown


Думал болгарский прожект, судя по названию пейсен в треклисте. Но нет, вроде как действительно казахская байда или русская из тех краёв.
По существу: а ведь весьма годная блэчина то блть.
Go to the top of the page
  Insert nick Quick quote
+Quote Post
post Jul 30 2021, 10:09:25
Post #3

Три Литра
***
Group: Завсегдатай
Posts: 216
Releases: 4
On Forums: 6 years 1 week
Thanks: 280 time(s)
Palau


ЦИТАТА(smysl @ Jul 29 2021, 12:07:02) *


(IMG:style_emoticons/default/25.gif) (IMG:style_emoticons/default/17.gif)

Сатирикон казахского разлива + что-то от Hate Forest(например)
Go to the top of the page
  Insert nick Quick quote
+Quote Post
post Jul 30 2021, 10:19:39
Post #4

Два Литра
**
Group: Завсегдатай
Posts: 108
Releases: 0
On Forums: 11 years 10 months
Thanks: 53 time(s)
Unknown


Это там где Борат живет, офигеть


Go to the top of the page
  Insert nick Quick quote
+Quote Post
post Jul 30 2021, 14:52:13
Post #5

Common dweller of hell
**************
Group: Металариец
Posts: 4,012
Releases: 12
From: Dnipro
On Forums: 13 years 2 months
Thanks: 1566 time(s)
Ukraine


ЦИТАТА(Anarhist815 @ Jul 30 2021, 12:19:39) *
Это там где Борат живет, офигеть

Его сын тут барабанит Бирам Сагдиев (IMG:style_emoticons/default/1488.gif)


Thanks:
Go to the top of the page
  Insert nick Quick quote
+Quote Post

Reply to this topicStart new topic
1 User(s) are reading this topic (1 Guests and 0 Anonymous Users)
0 Members:

 



- Lo-Fi Version Support form
Copyrights and abuse reports form
Time is now: 25th September 2021 - 02:15:12