Welcome Guest ( Log In | Register )

> Releases Upload / Добавление релизов

Добавить релиз тут / Click here to add release
Рекомендованные обменники / Recommended file shares

> Saturns Apep - Saturns Apep (2021), Black Metal
post Jul 30 2021, 00:22:05
Post #1

Правь статус, ####!616
**************
Group: Металариец
Posts: 6,989
Releases: 5430
From: 55°35’N 38°08’E
On Forums: 13 years 2 months
Thanks: 99599 time(s)
Unknown


(IMG:https://metalarea.org/images/audiocovers/2021_Jul/acov_tid353864_thumb.jpg)

*Artist: Saturns Apep
*Album: Saturns Apep
*Year: 2021
*Genre: Black Metal
*Country: Ecuador (IMG:https://metalarea.org/forum/style_images/flags/Ecuador.png)
*Format: mp3@CBR320kbps
*Size: 86MB

Tracklist:
1.Lucifers Graal 11:12
2.From The Dark And Deep Spirit Of Chaos 03:54
3.Infernal Archetype Of The Immortal Gnosis 06:57
4.Qliphotical Spheres Of The Black Knowledge 05:34
5.Saturns Apep 04:48
6.Tayta Volcan 04:54
******************************
Total playing time: 37:19



(IMG:https://metalarea.org/images/youtube.png)

Technical info
(IMG:https://metalarea.org/images/spectrogram/2021_Jul/3320f914fcd724a229326c822acefe28.png)
Input File: 01 LUCIFERS GRAAL.mp3
Channels : 2
Sample Rate : 44100
Precision : 16-bit
Duration : 00:11:12.30 = 29648474 samples = 50422.6 CDDA sectors
File Size : 27.0M
Bit Rate : 321k
Sample Encoding: MPEG audio (layer I, II or III)
Comments :
Title=LUCIFERS GRAAL
Artist=Saturns Apep
Album=Saturns Apep
Tracknumber=1
Year=2021
Genre=Black Metal



Register


Go to the top of the page
  Insert nick Quick quote
+Quote Post
 
Start new topic
Replies (1 - 5)
post Jul 30 2021, 10:10:34
Post #2

Два Литра
**
Group: Завсегдатай
Posts: 108
Releases: 0
On Forums: 11 years 10 months
Thanks: 53 time(s)
Unknown


Эквадор умеет не только бананы делать!
Go to the top of the page
  Insert nick Quick quote
+Quote Post
post Jul 31 2021, 08:33:59
Post #3

Group: Дух
Posts: 3
Releases: 0
On Forums: 3 years 6 months
Thanks: 1 time(s)
Unknown


А я то был уверен , что бананы сами растут ..
Go to the top of the page
  Insert nick Quick quote
+Quote Post
post Jul 31 2021, 13:35:23
Post #4

Common dweller of hell
**************
Group: Металариец
Posts: 4,012
Releases: 12
From: Dnipro
On Forums: 13 years 2 months
Thanks: 1566 time(s)
Ukraine




Thanks:
Go to the top of the page
  Insert nick Quick quote
+Quote Post
post Jul 31 2021, 14:36:08
Post #5

Три Литра
***
Group: Завсегдатай
Posts: 219
Releases: 1
From: Brasil - Sao Paulo
On Forums: 1 year 5 months
Thanks: 89 time(s)
Brazil


QUOTE
Эквадор умеет не только бананы делать!
QUOTE
А я то был уверен , что бананы сами растут ..

lmao
Go to the top of the page
  Insert nick Quick quote
+Quote Post
post Aug 31 2021, 15:36:01
Post #6

добрый мизантроп
**************
Group: Металариец
Posts: 2,394
Releases: 1
From: Менск
On Forums: 10 years 10 months
Thanks: 1079 time(s)
Madagascar


(IMG:style_emoticons/default/true_black.gif) (IMG:style_emoticons/default/true_black.gif) (IMG:style_emoticons/default/true_black.gif)
Go to the top of the page
  Insert nick Quick quote
+Quote Post

Reply to this topicStart new topic
2 User(s) are reading this topic (2 Guests and 0 Anonymous Users)
0 Members:

 



- Lo-Fi Version Support form
Copyrights and abuse reports form
Time is now: 25th September 2021 - 02:02:28