Welcome Guest ( Log In | Register )

> И неформату есть предел.

Рэп/хип-хоп/шансон/поп удаляются. Для них есть свои порталы.

> Linkin Park - The Hunting Party (2014), Alternative Rock (D9)
post Aug 1 2021, 13:58:22
Post #1

Правь статус, ####!111
**************
Group: Металариец
Posts: 4,474
Releases: 17
From: Holland
On Forums: 15 years 2 months
Thanks: 1464 time(s)
Netherlands


(IMG:http://metalarea.org/images/audiocovers/2021_Aug/acov_tid353940_thumb.jpg)

*Artist: Linkin Park
*Album: The Hunting Party
*Year: 2014
*Genre: Alternative Rock
*Country: United States (IMG:http://metalarea.org/forum/style_images/flags/United%20States.png)
*Format: mp3@CBR320kbps
*Size: 142MB

Tracklist:
1. Keys to the Kingdom 3:38
2. All for Nothing (featuring Page Hamilton) 3:33
3. Guilty All the Same (featuring Rakim) 5:55
4. The Summoning 1:00
5. War 2:11
6. Wastelands 3:15
7. Until It's Gone 3:53
8. Rebellion (featuring Daron Malakian) 3:44
9. Mark the Graves 5:05
10. Drawbar (featuring Tom Morello) 2:46
11. Final Masquerade 3:37
12. A Line in the Sand 6:35
13. With You (live at Home Depot Center) 3:42
14. Lost in the Echo (live at Home Depot Center) 3:57
15. Numb (live at Home Depot Center) 3:17
16. Burn It Down (live at Home Depot Center) 3:57
******************************
Total playing time: 1:00:05

(IMG:http://metalarea.org/images/youtube.png)

Extended info
Стянуто с интернета (торрентов). Содержит доп трэки (4 песни с лайвов).

С удивлением обнаружил, что альбома нет на портале.


Technical info
(IMG:http://metalarea.org/images/spectrogram/2021_Aug/243d1a2f1be803cf7075deb065091aaa.png)
Input File: 05 - War.mp3
Channels : 2
Sample Rate : 44100
Precision : 16-bit
Duration : 00:02:11.22 = 5786934 samples = 9841.72 CDDA sectors
File Size : 5.25M
Bit Rate : 320k
Sample Encoding: MPEG audio (layer I, II or III)
Comments :
Title=War
Artist=Linkin Park
Album=The Hunting Party
Tracknumber=05
Year=2014
Genre=Alternative



Register


Thanks:
(2) gwar, Olethros,
Go to the top of the page
  Insert nick Quick quote
+Quote Post
 
Start new topic
Replies (1 - 8)
post Aug 2 2021, 16:31:36
Post #2

Маньяк
**********
Group: Металариец
Posts: 1,465
Releases: 0
From: Кирово-Чепецк
On Forums: 6 years 5 months
Thanks: 357 time(s)
Russian Federation


разве не было
Go to the top of the page
  Insert nick Quick quote
+Quote Post
post Aug 2 2021, 17:45:07
Post #3

Ледоруб
**************
Group: Металариец
Posts: 28,815
Releases: 0
From: Санкт-Петербург
On Forums: 12 years 2 weeks
Thanks: 10369 time(s)
Russian Federation


Присоединяюсь к вопросу(?).
Go to the top of the page
  Insert nick Quick quote
+Quote Post
post Aug 2 2021, 18:57:43
Post #4

Котеги! Нравяцо котеги?
**************
Group: Металариец
Posts: 6,983
Releases: 0
From: Терра Инкогнита
On Forums: 11 years 4 months
Thanks: 3279 time(s)
Russian Federation


а надо было (?)
Go to the top of the page
  Insert nick Quick quote
+Quote Post
post Aug 2 2021, 19:04:54
Post #5

Ледоруб
**************
Group: Металариец
Posts: 28,815
Releases: 0
From: Санкт-Петербург
On Forums: 12 years 2 weeks
Thanks: 10369 time(s)
Russian Federation


А почему вы спрашиваете?
Go to the top of the page
  Insert nick Quick quote
+Quote Post
post Aug 3 2021, 06:56:55
Post #6

Котеги! Нравяцо котеги?
**************
Group: Металариец
Posts: 6,983
Releases: 0
From: Терра Инкогнита
On Forums: 11 years 4 months
Thanks: 3279 time(s)
Russian Federation


потому что я неуверен?
Go to the top of the page
  Insert nick Quick quote
+Quote Post
post Aug 3 2021, 10:50:37
Post #7

ΕΥΜΕΝΙΔΕΣ
**************
Group: Металариец
Posts: 2,488
Releases: 28
From: Kænugarður
On Forums: 14 years 7 months
Thanks: 3557 time(s)
Ukraine


По облоге прдумал, что это Ulcerate.
Go to the top of the page
  Insert nick Quick quote
+Quote Post
post Aug 3 2021, 12:10:43
Post #8

Ледоруб
**************
Group: Металариец
Posts: 28,815
Releases: 0
From: Санкт-Петербург
On Forums: 12 years 2 weeks
Thanks: 10369 time(s)
Russian Federation


ЦИТАТА(Black Cat @ 3rd August 2021 - 12:50:37) *
По облоге прдумал, что это Ulcerate.

По музыке, вероятно, тоже похоже.
Go to the top of the page
  Insert nick Quick quote
+Quote Post
post Aug 3 2021, 21:54:56
Post #9

Правь статус, ####!111
**************
Group: Металариец
Posts: 4,474
Releases: 17
From: Holland
On Forums: 15 years 2 months
Thanks: 1464 time(s)
Netherlands


Почему-то не было на портале.

Альбом в целом хороший, но первый трэк дико сбивает с толку, по началу вообще не понял, это точно линкин парк?, а дальше все как положено.
Go to the top of the page
  Insert nick Quick quote
+Quote Post

Reply to this topicStart new topic
1 User(s) are reading this topic (1 Guests and 0 Anonymous Users)
0 Members:

 



- Lo-Fi Version Support form
Copyrights and abuse reports form
Time is now: 29th September 2021 - 03:15:15