Welcome Guest ( Log In | Register )

 
Reply to this topicStart new topic
> Motorastola - Motorastola [ep] (2018), Heavy Metal/Punk
post Aug 3 2021, 10:07:50
Post #1

Правь статус, 616
**************
Group: Металариец
Posts: 7,222
Releases: 5651
From: 55°35’N 38°08’E
On Forums: 13 years 4 months
Thanks: 104125 time(s)
Unknown


(IMG:https://metalarea.org/images/audiocovers/2021_Aug/acov_tid353985_thumb.jpg)

*Artist: Motorastola
*Album: Motorastola [ep]
*Year: 2018
*Genre: Heavy Metal/Punk
*Country: Spain (IMG:https://metalarea.org/forum/style_images/flags/Spain.png)
*Format: mp3@CBR320kbps
*Size: 24MB

Tracklist:
1.No Law in the Wasteland 02:50
2.Bangkok Rules 01:36
3.Fuck the MFP 02:06
4.Oteros 02:44
******************************
Total playing time: 9:16

(IMG:https://metalarea.org/images/youtube.png)



Technical info
(IMG:https://metalarea.org/images/spectrogram/2021_Aug/e733a138d0f4de61d7b68290efec8d82.png)
Input File: 01 No Law in the Wasteland.mp3
Channels : 2
Sample Rate : 44100
Precision : 16-bit
Duration : 00:02:50.10 = 7501190 samples = 12757.1 CDDA sectors
File Size : 6.88M
Bit Rate : 324k
Sample Encoding: MPEG audio (layer I, II or III)
Comments :
Title=No Law in the Wasteland
Artist=Motorastola
Album=Motorastola
Tracknumber=1
Year=2018
Genre=Metalpunk



Register


Go to the top of the page
  Insert nick Quick quote
+Quote Post

Reply to this topicStart new topic
1 User(s) are reading this topic (1 Guests and 0 Anonymous Users)
0 Members:

 



- Lo-Fi Version Support form
Copyrights and abuse reports form
Time is now: 5th December 2021 - 00:34:18