Welcome Guest ( Log In | Register )

 
Reply to this topicStart new topic
> Void Column - The Chasmic Death [demo] (2021), Death/Doom Metal
post Aug 3 2021, 10:16:31
Post #1

Правь статус, 616
**************
Group: Металариец
Posts: 7,222
Releases: 5651
From: 55°35’N 38°08’E
On Forums: 13 years 4 months
Thanks: 104123 time(s)
Unknown


(IMG:https://metalarea.org/images/audiocovers/2021_Aug/acov_tid353986_thumb.jpg)

*Artist: Void Column
*Album: The Chasmic Death [demo]
*Year: 2021
*Genre: Death/Doom Metal
*Country: Canada (IMG:https://metalarea.org/forum/style_images/flags/Canada.png)
*Format: mp3@CBR320kbps
*Size: 28MB

Tracklist:
1. Cave Dwellers 04:59
2. Hallucinations (Into the Shallow Sleep) 02:48
3. Hollowed Out Graves 04:03
******************************
Total playing time: 11:50



Technical info
(IMG:https://metalarea.org/images/spectrogram/2021_Aug/c8efedb641a8e5fc1cf46b7b5d212281.png)
Input File: 01 Cave Dwellers.mp3
Channels : 2
Sample Rate : 44100
Precision : 16-bit
Duration : 00:04:59.33 = 13200453 samples = 22449.8 CDDA sectors
File Size : 12.1M
Bit Rate : 323k
Sample Encoding: MPEG audio (layer I, II or III)
Comments :
Title=Cave Dwellers
Artist=Void Column
Album=The Chasmic Death DEMO
Tracknumber=1
Year=2021
Genre=Death Metal



Register


Go to the top of the page
  Insert nick Quick quote
+Quote Post

Reply to this topicStart new topic
1 User(s) are reading this topic (1 Guests and 0 Anonymous Users)
0 Members:

 



- Lo-Fi Version Support form
Copyrights and abuse reports form
Time is now: 4th December 2021 - 23:45:27