Welcome Guest ( Log In | Register )

> Bloody Cumshot - Nymphomania (2021), Melodic Death Metal
post Aug 4 2021, 01:45:16
Post #1

Правь статус, ####!111
**************
Group: Металариец
Posts: 27,653
Releases: 20089
From: Г.Харьков
On Forums: 9 years 5 months
Thanks: 406452 time(s)
Unknown


(IMG:https://metalarea.org/images/audiocovers/2021_Aug/acov_tid354029_thumb.jpg)

*Artist: Bloody Cumshot
*Album: Nymphomania
*Year: 2021
*Genre: Melodic Death Metal
*Country: Japan (IMG:https://metalarea.org/forum/style_images/flags/Japan.png)
*Format: mp3@CBR320kbps
*Size: 66MB

Tracklist:
1. Shoot Your Ugliness 02:06
2. Nymphomania 03:04
3. Vomiting the Brain 02:49
4. Menstrual Chocolatier 02:35
5. Hate Fuck 02:54
6. Slave Humiliation 02:51
7. Victim of Desire 02:51
8. True Humanity 02:54
9. Vagina Dentata 03:06
10. You're Disgusting 02:44
******************************
Total playing time: 27:54




Extended info
Junya Guitars, Vocals
See also: Zemeth


Technical info
(IMG:https://metalarea.org/images/spectrogram/2021_Aug/6b13acd70d5d06310860053daeb4ee26.png)
Input File: 09 - VAGINA DENTATA.mp3
Channels : 2
Sample Rate : 44100
Precision : 16-bit
Duration : 00:03:06.00 = 8202600 samples = 13950 CDDA sectors
File Size : 7.60M
Bit Rate : 327k
Sample Encoding: MPEG audio (layer I, II or III)
Comments :
Title=VAGINA DENTATA
Artist=Bloody Cumshot
Album=NYMPHOMANIA
Tracknumber=9
Year=2021-08-04
Discnumber=1



Register


Go to the top of the page
  Insert nick Quick quote
+Quote Post
2 Pages V  < 1 2  
Start new topic
Replies (30 - 34)
post Yesterday, 13:43:03
Post #31

Ёлд ХеллоВяйне
Group Icon
Group: V.I.P
Posts: 32,163
Releases: 144
From: Питер
On Forums: 14 years 11 months
Thanks: 20152 time(s)
Russian Federation


QUOTE(6666666 @ 14th October 2021 - 15:40:01) *
Плохой ответ.


Зато правильный.
Go to the top of the page
  Insert nick Quick quote
+Quote Post
post Yesterday, 13:45:42
Post #32

Ледоруб
**************
Group: Металариец
Posts: 28,931
Releases: 0
From: Санкт-Петербург
On Forums: 12 years 1 month
Thanks: 10391 time(s)
Russian Federation


ЦИТАТА(Old Vyaine @ 14th October 2021 - 15:43:03) *
Зато правильный.

Нет, Junya мужик, ибо.
Go to the top of the page
  Insert nick Quick quote
+Quote Post
post Yesterday, 13:56:30
Post #33

Cultist
**************
Group: Металариец
Posts: 4,441
Releases: 1335
From: Koenigsberg
On Forums: 14 years 9 months
Thanks: 9225 time(s)
Russian Federation


Лол (IMG:style_emoticons/default/25.gif)
Go to the top of the page
  Insert nick Quick quote
+Quote Post
post Yesterday, 13:58:47
Post #34

Ледоруб
**************
Group: Металариец
Posts: 28,931
Releases: 0
From: Санкт-Петербург
On Forums: 12 years 1 month
Thanks: 10391 time(s)
Russian Federation


кек, да.
Go to the top of the page
  Insert nick Quick quote
+Quote Post
post Yesterday, 14:00:11
Post #35

Cultist
**************
Group: Металариец
Posts: 4,441
Releases: 1335
From: Koenigsberg
On Forums: 14 years 9 months
Thanks: 9225 time(s)
Russian Federation


но нет
Go to the top of the page
  Insert nick Quick quote
+Quote Post

2 Pages V  < 1 2
Reply to this topicStart new topic
2 User(s) are reading this topic (2 Guests and 0 Anonymous Users)
0 Members:

 



- Lo-Fi Version Support form
Copyrights and abuse reports form
Time is now: 15th October 2021 - 22:13:36