Welcome Guest ( Log In | Register )

Объявления

* gmail.com упорно продолжает считать почту с нас "unsolicited" и отбивает в том числе и письма активации, поэтому просьба использовать альтернативные почтовые ящики.
------------
* gmail.com continues reject all mail from us as "unsolicited" (activation mails too) therefore please use alternate mail servers.

> Правила / Rules

Тут только для чтения лежат низкобитрейтные (<192kbps) релизы, для которых есть аналоги в высокобитрейтных форумах.

Here goes (and stand in read only mode) low bitrate releases (<192kbps) which were already replaced by high bitrate releases in corresponding forums.

> Alchemy Of Flesh - Ageless Abominations (2021), Death Metal
post Aug 11 2021, 04:47:56
Post #1

MDM-Thrash Metal
**************
Group: Металариец
Posts: 12,452
Releases: 1742
From: Одесса
On Forums: 16 years 9 months
Thanks: 40453 time(s)
Ukraine


(IMG:http://metalarea.org/images/audiocovers/2021_Aug/acov_tid354300_thumb.jpg)

*Artist: Alchemy Of Flesh
*Album: Ageless Abominations
*Year: 2021
*Genre: Death Metal
*Country: United States (IMG:http://metalarea.org/forum/style_images/flags/United%20States.png)
*Format: mp3@CBR128kbps (IMG:http://metalarea.org/images/bit_low.gif)
*Size: 39MB

Tracklist:
01. Pain Primordial
02. House of Earth
03. Lobsel Vith
04. Slipgates to Annihilation
05. Knotter of Entrails
06. Sleeping Chaos
07. Lava Storm
08. Flamma Nera Rites
09. Opener of the Way
******************************
Total playing time: 38:58



(IMG:http://metalarea.org/images/youtube.png)
(IMG:http://metalarea.org/images/youtube.png)

Extended info
Ageless Abominations, the debut album from Alchemy of Flesh, is death metal through and through. A new solo project from multi-instrumentalist Tim Rowland, Ageless Abominations is rooted firmly in the Florida style of American death metal, looking to Morbid Angel as the main inspiration behind the sound.


Technical info
(IMG:http://metalarea.org/images/spectrogram/2021_Aug/47b11f22489058879ddf9d7a74d31487.png)
Input File: 02. House of Earth.mp3
Channels : 2
Sample Rate : 44100
Precision : 16-bit
Duration : 00:03:49.65 = 10127345 samples = 17223.4 CDDA sectors
File Size : 3.68M
Bit Rate : 128k
Sample Encoding: MPEG audio (layer I, II or III)
Comments :
Title=House of Earth
Artist=Alchemy of Flesh
Album=Ageless Abominations
Tracknumber=02
Year=2021



Register


Go to the top of the page
  Insert nick Quick quote
+Quote Post
 
Start new topic
Replies (1 - 4)
post Aug 11 2021, 19:26:22
Post #2

MDM-Thrash Metal
**************
Group: Металариец
Posts: 12,452
Releases: 1742
From: Одесса
On Forums: 16 years 9 months
Thanks: 40453 time(s)
Ukraine


Tim Rowland - vocals, all instrumentation
Morbid Angelом отдает на всю!
Go to the top of the page
  Insert nick Quick quote
+Quote Post
post Aug 11 2021, 20:01:42
Post #3

Два Литра
**
Group: Завсегдатай
Posts: 152
Releases: 0
On Forums: 3 years 1 month
Thanks: 58 time(s)
Unknown


Местами шикарно. Да. (IMG:style_emoticons/default/20.gif)


Thanks:
Go to the top of the page
  Insert nick Quick quote
+Quote Post
post Aug 12 2021, 01:03:55
Post #4

Crush The Enemies
**************
Group: Металариец
Posts: 4,337
Releases: 0
From: Moscow
On Forums: 14 years 8 months
Thanks: 2818 time(s)
Russian Federation


ЦИТАТА(metamfer @ Aug 11 2021, 23:01:42) *
Местами шикарно. Да. (IMG:style_emoticons/default/20.gif)

По моему МНОГИМИ (IMG:style_emoticons/default/true_black.gif) (IMG:style_emoticons/default/true_black.gif) (IMG:style_emoticons/default/true_black.gif)


Thanks:
(1) metamfer,
Go to the top of the page
  Insert nick Quick quote
+Quote Post
post Aug 12 2021, 11:59:36
Post #5

Правь статус, ####!111
**************
Group: Металариец
Posts: 35,995
Releases: 26829
From: Г.Харьков
On Forums: 12 years 3 weeks
Thanks: 581875 time(s)
Ukraine


320 90mb
Register


Go to the top of the page
  Insert nick Quick quote
+Quote Post

Причина закрытия (DarkHorde 13-08-2021): Alchemy Of Flesh - Ageless Abominations (2021)
Closed TopicStart new topic
1 User(s) are reading this topic (1 Guests and 0 Anonymous Users)
0 Members:

 



- Lo-Fi Version Support form
Copyrights and abuse reports form
Time is now: 30th May 2024 - 23:58:04