Welcome Guest ( Log In | Register )

> Witchcryer - When Their Gods Come For You (2021), Heavy/Doom Metal
post Aug 19 2021, 12:46:59
Post #1

Правь статус, ####!111
**************
Group: Металариец
Posts: 35,117
Releases: 26118
From: Г.Харьков
On Forums: 11 years 9 months
Thanks: 562140 time(s)
Ukraine


(IMG:https://metalarea.org/images/audiocovers/2021_Aug/acov_tid354550_thumb.jpg)

*Artist: Witchcryer
*Album: When Their Gods Come For You
*Year: 2021
*Genre: Heavy/Doom Metal
*Country: United States (IMG:https://metalarea.org/forum/style_images/flags/United%20States.png)
*Format: mp3@CBR320kbps
*Size: 110MB

Tracklist:
1. The Devil & the Deep Blue See 05:49
2. Hellmouth 05:04
3. Sisyphus, Holy Roller 04:27
4. Nemesis, the Inevitable 05:40
5. Quetzalcoatl 05:58
6. I Rise! 05:26
7. Blackfoot Creation Story / Spirit Power 07:38
8. When Their Gods Come for You 07:34
******************************
Total playing time: 47:36




Extended info
Suzy Bravo Vocals
Marilyn Bass
Javi Moctezuma Drums
Jason Muxlow Guitars


Technical info
(IMG:https://metalarea.org/images/spectrogram/2021_Aug/a31a70065d1263eca0864b25b00ec875.png)
Input File: 08 - When Their Gods Come For You.mp3
Channels : 2
Sample Rate : 44100
Precision : 16-bit
Duration : 00:07:34.00 = 20021400 samples = 34050 CDDA sectors
File Size : 18.3M
Bit Rate : 322k
Sample Encoding: MPEG audio (layer I, II or III)
Comments :
Title=When Their Gods Come For You
Artist=Witchcryer
Album=When Their Gods Come For You
Tracknumber=8
Year=2021-08-20
Genre=Rock/Metal
Discnumber=1



Register


Go to the top of the page
  Insert nick Quick quote
+Quote Post
 
Start new topic
Replies (1 - 1)
post Mar 17 2023, 01:01:04
Post #2
BAN
Banned till
Aug 13 273792724, 19:46:46



Звёзд с неба не срывают, но крепенько, бодрячком. По стилю очень влияние раннего Black Sabbath торчит плюс психодел того же времени. И хорошо, что в стоунер не ударились - забодал уже этот стоунер насмерть. Дума как такого тут тоже нету, не больше, чем у BS.
Вокалистка - не Голос Сатаны, но хороша, материал чувствует.
Go to the top of the page
  Insert nick Quick quote
+Quote Post

Reply to this topicStart new topic
2 User(s) are reading this topic (2 Guests and 0 Anonymous Users)
0 Members:

 



- Lo-Fi Version Support form
Copyrights and abuse reports form
Time is now: 3rd March 2024 - 06:08:10