Welcome Guest ( Log In | Register )

> Beastlurker - Celestial Henchwhores Aflame (2021), Black/Death Metal
post Aug 20 2021, 05:37:51
Post #1

Правь статус, ####!111
**************
Group: Металариец
Posts: 30,924
Releases: 22794
From: Г.Харьков
On Forums: 10 years 6 months
Thanks: 477015 time(s)
Unknown


(IMG:https://metalarea.org/images/audiocovers/2021_Aug/acov_tid354578_thumb.jpg)

*Artist: Beastlurker
*Album: Celestial Henchwhores Aflame
*Year: 2021
*Genre: Black/Death Metal
*Country: United States (IMG:https://metalarea.org/forum/style_images/flags/United%20States.png)
*Format: mp3@CBR320kbps
*Size: 110MB

Tracklist:
01. Celestial Henchwhores Aflame
02. The Apex Sadis
03. Muted Vociferations Hemorrhaging from a Cesspit of Condemnation
04. Trocar
05. Bellows of Infernal Bliss
06. Ligature
07. Pygmalion Archetypal Decasia
08. Pseudorosicrucian
09. Pawns of the Fetid King
10. Noctivagant Wisdom
******************************
Total playing time: 48:05




Extended info
S. Boersma Bass
M. Maggio Drums, Vocals
J. Geist Guitars


Technical info
(IMG:https://metalarea.org/images/spectrogram/2021_Aug/ebd7f309ac58714041de0ac4977da014.png)
Input File: 07. Pygmalion Archetypal Decasia.mp3
Channels : 2
Sample Rate : 44100
Precision : 16-bit
Duration : 00:06:04.18 = 16060426 samples = 27313.6 CDDA sectors
File Size : 14.6M
Bit Rate : 320k
Sample Encoding: MPEG audio (layer I, II or III)
Comments :
Title=Pygmalion Archetypal Decasia
Artist=Beastlurker
Album=Celestial Henchwhores Aflame
Tracknumber=07
Year=2021



Register


Go to the top of the page
  Insert nick Quick quote
+Quote Post
 
Start new topic
Replies (1 - 4)
post Sep 6 2021, 16:51:15
Post #2

Common dweller of hell
**************
Group: Металариец
Posts: 4,497
Releases: 12
From: Dnipro
On Forums: 14 years 4 months
Thanks: 1781 time(s)
Ukraine


Отличный альбом, прогнал 5-6 раз, очень понравился (IMG:style_emoticons/default/20.gif)
Go to the top of the page
  Insert nick Quick quote
+Quote Post
post Sep 14 2021, 12:47:22
Post #3

Austenite
**************
Group: Металариец
Posts: 3,182
Releases: 1
From: Менск
On Forums: 12 years 2 weeks
Thanks: 1432 time(s)
Madagascar


Great work, BM with melodic, punk, death. Powerful, fast and serious (IMG:style_emoticons/default/true_black.gif) (IMG:style_emoticons/default/true_black.gif) (IMG:style_emoticons/default/true_black.gif)
Go to the top of the page
  Insert nick Quick quote
+Quote Post
post Jul 25 2022, 15:04:30
Post #4

Литр
*
Group: Подсевший
Posts: 70
Releases: 0
On Forums: 13 years 3 months
Thanks: 35 time(s)
Unknown


ЦИТАТА(isvili @ Sep 14 2021, 16:47:11) *




Thanks:
(1) Occultas,
Go to the top of the page
  Insert nick Quick quote
+Quote Post
post Jul 26 2022, 16:00:48
Post #5

Common dweller of hell
**************
Group: Металариец
Posts: 4,497
Releases: 12
From: Dnipro
On Forums: 14 years 4 months
Thanks: 1781 time(s)
Ukraine


ЦИТАТА(Piob @ Jul 25 2022, 17:04:30) *

Да, я уже скачал пару дней назад, у них там акция сейчас все альбомы с 2021 года на шару.


Thanks:
(1) Occultas,
Go to the top of the page
  Insert nick Quick quote
+Quote Post

Reply to this topicStart new topic
1 User(s) are reading this topic (1 Guests and 0 Anonymous Users)
0 Members:

 



- Lo-Fi Version Support form
Copyrights and abuse reports form
Time is now: 3rd December 2022 - 17:54:57