Welcome Guest ( Log In | Register )

> Releases Upload / Добавление релизов

Добавить релиз тут / Click here to add release
Рекомендованные обменники / Recommended file shares

> Medikal Horror - Toxicopharma (2021), Thrash Metal
post Aug 22 2021, 17:53:47
Post #1

Правь статус, ####!111
**************
Group: Металариец
Posts: 27,685
Releases: 20124
From: Г.Харьков
On Forums: 9 years 5 months
Thanks: 407419 time(s)
Unknown


(IMG:https://metalarea.org/images/audiocovers/2021_Aug/acov_tid354653_thumb.jpg)

*Artist: Medikal Horror
*Album: Toxicopharma
*Year: 2021
*Genre: Thrash Metal
*Country: Ecuador (IMG:https://metalarea.org/forum/style_images/flags/Ecuador.png)
*Format: mp3@CBR320kbps
*Size: 77MB

Tracklist:
01. Corrosión Social 03:00
02. Agonías Nocturnas 03:25
03. La Noche 03:17
04. Infección Tecnológica 03:11
05. La Morgue 03:20
06. Toxicopharma 03:00
07. Suicidio Universal 03:45
08. El Títere 02:57
09. Vida Extrema 02:57
10. Puchuato (Ente Homicida) 04:30
******************************
Total playing time: 33:22




Extended info
Marcelo Villavicencio Bass
See also: ex-Diabolika, ex-Legión
Paúl Plaza Drums
Jeremy Pilatasig Guitars
Fabián Torres Vocals


Technical info
(IMG:https://metalarea.org/images/spectrogram/2021_Aug/7154ab99fe7aae885151eb820d9f65d3.png)
Input File: 07 - Suicidio Universal.mp3
Channels : 2
Sample Rate : 44100
Precision : 16-bit
Duration : 00:03:44.00 = 9878400 samples = 16800 CDDA sectors
File Size : 9.14M
Bit Rate : 326k
Sample Encoding: MPEG audio (layer I, II or III)
Comments :
Title=Suicidio Universal
Artist=Medikal Horror
Album=Toxicopharma
Tracknumber=7
Year=2021-08-22
Discnumber=1



Register


Go to the top of the page
  Insert nick Quick quote
+Quote Post
 
Start new topic
Replies (1 - 4)
post Aug 22 2021, 22:04:04
Post #2

Два Литра
**
Group: Завсегдатай
Posts: 120
Releases: 0
On Forums: 11 years 11 months
Thanks: 56 time(s)
Unknown


Эквадорцы последнее время активизировались! Но это не качественная, а количественная активизация! Пока что делать бананы у них получается лучше, чем метал.
Go to the top of the page
  Insert nick Quick quote
+Quote Post
post Aug 24 2021, 10:45:14
Post #3

MDM-Thrash Metal
**************
Group: Металариец
Posts: 10,600
Releases: 1327
From: Одесса
On Forums: 14 years 2 months
Thanks: 32081 time(s)
Ukraine


- Превью всего альбома
Go to the top of the page
  Insert nick Quick quote
+Quote Post
post Sep 14 2021, 07:48:49
Post #4

добрый мизантроп
**************
Group: Металариец
Posts: 2,477
Releases: 1
From: Менск
On Forums: 10 years 11 months
Thanks: 1096 time(s)
Madagascar


ЦИТАТА(Anarhist815 @ Aug 23 2021, 00:04:04) *
Эквадорцы последнее время активизировались! Но это не качественная, а количественная активизация! Пока что делать бананы у них получается лучше, чем метал.

Бананы в Гондурасе собирают
Go to the top of the page
  Insert nick Quick quote
+Quote Post
post Sep 14 2021, 10:37:10
Post #5

практики шума одухотворяющего
**************
Group: Металариец
Posts: 3,087
Releases: 96
From: Хроник дисмЭмбера
On Forums: 3 years 9 months
Thanks: 4185 time(s)
Russian Federation


ЦИТАТА(Storky @ Sep 14 2021, 10:48:49) *
Бананы в Гондурасе собирают


В Гондурасе нету треша, вовсе там "не та страна"
Золотой запас бананов собирает Сатана.
Гондурасские бананы - ересь, хипстерское фу.
По хардкору, с Эквадора - трэш-банановое true.


Thanks:
(2) lldma, Yarri,
Go to the top of the page
  Insert nick Quick quote
+Quote Post

Reply to this topicStart new topic
1 User(s) are reading this topic (1 Guests and 0 Anonymous Users)
0 Members:

 



- Lo-Fi Version Support form
Copyrights and abuse reports form
Time is now: 20th October 2021 - 14:40:08