Welcome Guest ( Log In | Register )

> Exanimatvm - Sollvm Ipsa Mor (2021), Death Metal
post Aug 24 2021, 04:17:25
Post #1

Правь статус, ####!111
**************
Group: Металариец
Posts: 30,377
Releases: 22365
From: Г.Харьков
On Forums: 10 years 4 months
Thanks: 467168 time(s)
Unknown


(IMG:https://metalarea.org/images/audiocovers/2021_Aug/acov_tid354716_thumb.jpg)

*Artist: Exanimatvm
*Album: Sollvm Ipsa Mor
*Year: 2021
*Genre: Death Metal
*Country: Chile (IMG:https://metalarea.org/forum/style_images/flags/Chile.png)
*Format: mp3@CBR320kbps
*Size: 77MB

Tracklist:
1. En las negras aguas de Atélily
2. Sollvm Ipsa Mor o La voraz antítesis del cosmos
3. Chskl o En las misteriosas aguas de Tkoyuska
4. Magna Veritas
******************************
Total playing time: 33:45




Extended info
Claudio Muñoz Drums (2013-present)
See also: Meconio, Somnvs Mortis, ex-Hibrido, ex-Pusher, ex-Inner Dystopia (live)
Enzo Velásquez Guitars, Bass (2013-present)
See also: Somnvs Mortis
Demis Ferreira Bass, Vocals (2014-present)
Jorge Tréllez Guitars (2014-present)
See also: Inner Dystopia, ex-Hallux Valgus, ex-Strigoi (live), ex-Mustia Arbórea


Technical info
(IMG:https://metalarea.org/images/spectrogram/2021_Aug/556ce7023a598010e88fbefc7e22042c.png)
Input File: 03. Chskl o En las Misteriosas Aguas de Tkoyuska.mp3
Channels : 2
Sample Rate : 44100
Precision : 16-bit
Duration : 00:08:45.65 = 23181077 samples = 39423.6 CDDA sectors
File Size : 21.0M
Bit Rate : 320k
Sample Encoding: MPEG audio (layer I, II or III)
Comments :
Title=Chskl o En las Misteriosas Aguas de Tkoyuska
Artist=Exanimatvm
Album=Sollvm Ipsa Mor
Tracknumber=03
Year=2021



Register


Go to the top of the page
  Insert nick Quick quote
+Quote Post
 
Start new topic
Replies (1 - 5)
post Aug 25 2021, 13:46:22
Post #2

Правь статус, ####!111
**************
Group: Металариец
Posts: 30,377
Releases: 22365
From: Г.Харьков
On Forums: 10 years 4 months
Thanks: 467168 time(s)
Unknown


ЦИТАТА(Occultas @ Aug 25 2021, 13:22:03) *
YouTube rip, залейте нормальное качество

Когда диск купишь-рип сделаешь и сразу зальем в HQ!


Go to the top of the page
  Insert nick Quick quote
+Quote Post
post Oct 17 2021, 11:16:52
Post #3
BAN
Banned till
Sep 20 2023, 05:50:37



Bandcamp 320kbps or flac ( img cue log )?
Go to the top of the page
  Insert nick Quick quote
+Quote Post
post May 11 2022, 14:41:38
Post #4

Правь статус, ####!111
**************
Group: Металариец
Posts: 30,377
Releases: 22365
From: Г.Харьков
On Forums: 10 years 4 months
Thanks: 467168 time(s)
Unknown


ЦИТАТА(Baal38 @ 17th October 2021 - 11:16:52) *
ЦИТАТА(Occultas @ Aug 25 2021, 13:22:03)
YouTube rip, залейте нормальное качество

320 с дизера 78мб
Register


Thanks:
Go to the top of the page
  Insert nick Quick quote
+Quote Post
post May 11 2022, 15:15:51
Post #5
BAN
Banned till
Nov 18 2022, 15:58:31



Блекенед миазма дет-металл. (IMG:style_emoticons/default/true_black.gif)
Колорит Чили - Эстетика Ада.


Thanks:
Go to the top of the page
  Insert nick Quick quote
+Quote Post
post May 14 2022, 14:26:11
Post #6

Правь статус, ####!111
**************
Group: Металариец
Posts: 30,377
Releases: 22365
From: Г.Харьков
On Forums: 10 years 4 months
Thanks: 467168 time(s)
Unknown


FLAC (Tracks) 227 mb
Register


Thanks:
Go to the top of the page
  Insert nick Quick quote
+Quote Post

Reply to this topicStart new topic
1 User(s) are reading this topic (1 Guests and 0 Anonymous Users)
0 Members:

 



- Lo-Fi Version Support form
Copyrights and abuse reports form
Time is now: 3rd October 2022 - 08:21:47