Welcome Guest ( Log In | Register )

> Maysaloon - A Lip To Earth, A Lip To Heaven And A Tongue To The Stars (2021), Melodic Blackened Death Metal
post Aug 24 2021, 11:19:04
Post #1

Правь статус, ####!111
**************
Group: Металариец
Posts: 28,169
Releases: 20552
From: Г.Харьков
On Forums: 9 years 6 months
Thanks: 418585 time(s)
Unknown


(IMG:https://metalarea.org/images/audiocovers/2021_Aug/acov_tid354719_thumb.jpg)

*Artist: Maysaloon
*Album: A Lip To Earth, A Lip To Heaven And A Tongue To The Stars
*Year: 2021
*Genre: Melodic Blackened Death Metal
*Country: Syria (IMG:https://metalarea.org/forum/style_images/flags/Syria.png)
*Format: mp3@CBR320kbps
*Size: 112MB

Tracklist:
1. A Hymn to Ugarit 01:41 instrumental
2. Mot 06:55
3. Pillars of Creation 07:01
4. Herald of Divinity 05:20
5. Hadad, Slayer of Yamm 07:03
6. Of Gods and Decay 06:08
7. Downfall 07:29
8. The Truer One 07:20
******************************
Total playing time: 48:57




Extended info
Dio Al-Miqdad Bass, Drum programming
Jake Shuker Vocals, Guitars
Khodor Nashar Guitars, Vocals (backing)
Jamal Al-Mohrez Drums


Technical info
(IMG:https://metalarea.org/images/spectrogram/2021_Aug/9a5003ab0c9f960461f941bc22f41590.png)
Input File: 07 - Downfall.mp3
Channels : 2
Sample Rate : 44100
Precision : 16-bit
Duration : 00:07:29.44 = 19820216 samples = 33707.9 CDDA sectors
File Size : 18.0M
Bit Rate : 320k
Sample Encoding: MPEG audio (layer I, II or III)
Comments :
Title=Downfall
Artist=Maysaloon
Album=A lip to earth, a lip to heaven and a tongue to the stars
Tracknumber=7
Year=2021



Register


Go to the top of the page
  Insert nick Quick quote
+Quote Post
 
Start new topic
Replies (1 - 7)
post Aug 25 2021, 11:42:36
Post #2

Два Литра
**
Group: Завсегдатай
Posts: 152
Releases: 0
On Forums: 7 months 1 week
Thanks: 56 time(s)
Unknown


А тут конечно сирийцы-ливанцы дали про[мат->бан]ся. (IMG:style_emoticons/default/20.gif)
Go to the top of the page
  Insert nick Quick quote
+Quote Post
post Aug 26 2021, 13:43:47
Post #3

Три Литра
***
Group: Завсегдатай
Posts: 269
Releases: 0
From: Лиски
On Forums: 10 years 4 months
Thanks: 44 time(s)
Russian Federation


Всё здесь хорошо-симфо,мелодика,где-то даже башкотряс пробивается.Слушаю с удовольствием.И никто не пришёл...
--------------
А металарийцы в последнее время предпочитают обсуждать оголтелое дерьмо в ввиде СС и им подобных на десятки никому не нужных страниц.
Мельчаете,как те караси в моём пруду без подкормки...
Go to the top of the page
  Insert nick Quick quote
+Quote Post
post Aug 26 2021, 22:31:44
Post #4

Шесть Литров
******
Group: Металариец
Posts: 598
Releases: 0
From: Москва
On Forums: 15 years 1 month
Thanks: 129 time(s)
Russian Federation


Довольно мелодичная годная долба.
Go to the top of the page
  Insert nick Quick quote
+Quote Post
post Aug 26 2021, 23:02:35
Post #5
BAN
Banned till
Dec 4 2021, 18:04:22



Очень и очень внезапно хорошо
Go to the top of the page
  Insert nick Quick quote
+Quote Post
post Sep 14 2021, 11:31:32
Post #6

Ъ
**************
Group: Металариец
Posts: 10,885
Releases: 9
On Forums: 12 years 10 months
Thanks: 2199 time(s)
Sweden


Сирия? И правда неожиданно, пару раз послушать норм.
Go to the top of the page
  Insert nick Quick quote
+Quote Post
post Sep 14 2021, 13:39:45
Post #7

Два Литра
**
Group: Завсегдатай
Posts: 165
Releases: 0
From: Zürich
On Forums: 5 months 2 weeks
Thanks: 68 time(s)
Switzerland


Толковый соляк на 4-м треке и еще пара интересных моментов замечено, но все остальное настолько заезженно, насколько это вообще можно представить. После бегемотовского апостаси надо прекращать лупить весь этот восточный блэкдэт - лучше все равно не получится, а хуже и без вас уже океан.
Go to the top of the page
  Insert nick Quick quote
+Quote Post
post Sep 15 2021, 13:51:18
Post #8

добрый мизантроп
**************
Group: Металариец
Posts: 2,633
Releases: 1
From: Менск
On Forums: 11 years 2 weeks
Thanks: 1142 time(s)
Madagascar


Looks like not my kind of death metal with medium speed and phrygian mode (or smth like that).
Surely arabs has premuim right to play phrygian mode, but its overused nowadays.
Go to the top of the page
  Insert nick Quick quote
+Quote Post

Reply to this topicStart new topic
1 User(s) are reading this topic (1 Guests and 0 Anonymous Users)
0 Members:

 



- Lo-Fi Version Support form
Copyrights and abuse reports form
Time is now: 3rd December 2021 - 05:09:48