Welcome Guest ( Log In | Register )

> Veil Of Conspiracy - Echoes Of Winter (2021), Melodic Doom/Dark Metal
post Aug 26 2021, 14:16:05
Post #1

Правь статус, ####!111
**************
Group: Металариец
Posts: 29,287
Releases: 21502
From: Г.Харьков
On Forums: 10 years 2 weeks
Thanks: 444039 time(s)
Unknown


(IMG:https://metalarea.org/images/audiocovers/2021_Aug/acov_tid354791_thumb.jpg)

*Artist: Veil Of Conspiracy
*Album: Echoes Of Winter
*Year: 2021
*Genre: Melodic Doom/Dark Metal
*Country: Italy (IMG:https://metalarea.org/forum/style_images/flags/Italy.png)
*Format: mp3@CBR320kbps
*Size: 105MB

Tracklist:
1. Woods of Nevermore
2. Grim Light
3. The Darkest Fall
4. Ocean's Tide
5. At the Edge of Dark
6. Cold
7. Shore of Discord
8. Forsaken
9. Svart
10. Where the Sun Turns to Grey
******************************
Total playing time: 45:29




Extended info
Davide Fabrizio Drums
Emanuela Marino Songwriting, Lyrics, Guitars
Luca Gagnoni Songwriting, Lyrics, Guitars
Cristian Marchese Bass
Alessandro Sforza Vocals


Technical info
(IMG:https://metalarea.org/images/spectrogram/2021_Aug/b9caea9d905b262c8c724c7748203348.png)
Input File: 05 - At the Edge of Dark.mp3
Channels : 2
Sample Rate : 44100
Precision : 16-bit
Duration : 00:05:23.00 = 14244300 samples = 24225 CDDA sectors
File Size : 13.0M
Bit Rate : 322k
Sample Encoding: MPEG audio (layer I, II or III)
Comments :
Title=At the Edge of Dark
Artist=Veil Of Conspiracy
Album=Echoes of Winter
Tracknumber=5
Year=2021-08-27
Genre=Metal
Discnumber=1



Register


Go to the top of the page
  Insert nick Quick quote
+Quote Post
 
Start new topic
Replies (1 - 5)
post Aug 26 2021, 18:30:42
Post #2

Пять Литров
*****
Group: Металариец
Posts: 457
Releases: 0
On Forums: 4 years 3 months
Thanks: 161 time(s)
Belarus


Вроде не так и плохо, но слишком много чистого вокала и вокала состоящего из криков. Заменить все бы это убожество гроулом и можно было даже внимательно ознакомиться. А так, головная боль не в приоритете.


Thanks:
(1) Glioma,
Go to the top of the page
  Insert nick Quick quote
+Quote Post
post Aug 26 2021, 20:04:50
Post #3

Четыре Литра
****
Group: Металариец
Posts: 323
Releases: 1
On Forums: 15 years 4 weeks
Thanks: 32 time(s)
Russian Federation


ЦИТАТА(GRAF @ 26th August 2021 - 20:30:42) *
Заменить все бы это убожество гроулом и можно было даже внимательно ознакомиться.

включил превью на ютьюбе- там гроул. что я сделал не так?))
Go to the top of the page
  Insert nick Quick quote
+Quote Post
post Aug 26 2021, 20:21:14
Post #4

Ледоруб
**************
Group: Металариец
Posts: 30,170
Releases: 0
From: Санкт-Петербург
On Forums: 12 years 8 months
Thanks: 10815 time(s)
Russian Federation


ЦИТАТА(silentstorm @ 26th August 2021 - 22:04:50) *
что я сделал не так?

Послушал Графа, который в музыке не разбирается.


Thanks:
Go to the top of the page
  Insert nick Quick quote
+Quote Post
post Aug 26 2021, 20:46:37
Post #5

хаос и порядок
*****
Group: Металариец
Posts: 467
Releases: 0
From: Запорожье
On Forums: 12 years 4 weeks
Thanks: 243 time(s)
Ukraine


QUOTE(6666666 @ 26th August 2021 - 22:21:14) *
Послушал Графа, который в музыке не разбирается.

Ну, как те сказать, ютуб то ютубом, а альбом начинается с протяжного такого ЙАААЗЬ. За первые два трэка женский вокал из превью с ютуба пока не услышал, и гроула тоже мало...

Дослушал.

...и вообще, композиция с ютуба из доп.инфо только вводит в заблуждение. При всей своей офигенности на остальной альбом она не похожа.
Альбом тем не менее хорош, но скорее в духе второй части творчества Кататонии, правда разнообразнее стилистически. Alessandro Sforza оказывается шикарный вокалист: и чистый вокал, и скрим, и гроул - всё отлично, вот сочетаются ли они - дело вкуса.
Go to the top of the page
  Insert nick Quick quote
+Quote Post
post Sep 10 2021, 13:56:10
Post #6

Ъ
**************
Group: Металариец
Posts: 10,976
Releases: 9
On Forums: 13 years 4 months
Thanks: 2211 time(s)
Sweden


Неплохо, на раз послушать пойдет.
Go to the top of the page
  Insert nick Quick quote
+Quote Post

Reply to this topicStart new topic
2 User(s) are reading this topic (2 Guests and 0 Anonymous Users)
0 Members:

 



- Lo-Fi Version Support form
Copyrights and abuse reports form
Time is now: 25th May 2022 - 04:26:42