Welcome Guest ( Log In | Register )

> Feuille Morte - Feuille Morte (2021), Black Metal
post Sep 7 2021, 19:38:39
Post #1

Правь статус, ####!111
**************
Group: Металариец
Posts: 28,587
Releases: 20922
From: Г.Харьков
On Forums: 9 years 8 months
Thanks: 427834 time(s)
Unknown


(IMG:https://metalarea.org/images/audiocovers/2021_Sep/acov_tid355233_thumb.jpg)

*Artist: Feuille Morte
*Album: Feuille Morte
*Year: 2021
*Genre: Black Metal
*Country: France (IMG:https://metalarea.org/forum/style_images/flags/France.png)
*Format: mp3@CBR320kbps
*Size: 73MB

Tracklist:
1. Tradition 01:21 instrumental
2. Chemin 04:40
3. Forêt 04:18
4. Pénombre 03:17
5. Solitude 05:59
6. Trahison 05:25
7. Souffrance 05:07
8. Epilogue 01:49 instrumental
******************************
Total playing time: 31:56



Extended info
Crépüscule Drums, Vocals, Guitars, Bass
See also: Mortuaire
Nostälgie Guitars. Vocals


Technical info
(IMG:https://metalarea.org/images/spectrogram/2021_Sep/7ea4c0b857bfd02bcecd7f5111cb47b7.png)
Input File: 06 - Trahison.mp3
Channels : 2
Sample Rate : 44100
Precision : 16-bit
Duration : 00:05:25.06 = 14334926 samples = 24379.1 CDDA sectors
File Size : 13.0M
Bit Rate : 320k
Sample Encoding: MPEG audio (layer I, II or III)
Comments :
Title=Trahison
Artist=Feuille Morte
Album=Feuille Morte
Tracknumber=6
Year=2021
Genre=Black Metal



Register


Go to the top of the page
  Insert nick Quick quote
+Quote Post
 
Start new topic
Replies (1 - 4)
post Sep 8 2021, 07:50:08
Post #2

I hate you all
**************
Group: Металариец
Posts: 2,830
Releases: 89
From: Ukraine
On Forums: 14 years 8 months
Thanks: 7237 time(s)
Ukraine




Thanks:
Go to the top of the page
  Insert nick Quick quote
+Quote Post
post Sep 8 2021, 09:35:20
Post #3

Четыре Литра
****
Group: Металариец
Posts: 376
Releases: 5
On Forums: 14 years 10 months
Thanks: 308 time(s)
Russian Federation


Мертвый листик чем-то напоминает Peste Noire

К стилю смело можно добавлять melancholic


Thanks:
(1) Hexer,
Go to the top of the page
  Insert nick Quick quote
+Quote Post
post Sep 11 2021, 18:38:14
Post #4

Пять Литров
*****
Group: Металариец
Posts: 433
Releases: 0
On Forums: 7 months 1 week
Thanks: 316 time(s)
Unknown


ЦИТАТА(goxther @ Sep 8 2021, 09:35:20) *
Мертвый листик чем-то напоминает Peste Noire

К стилю смело можно добавлять melancholic


Очень похоже что музыкант ими вдохновлялся, а еще Sale Freux.
Французская Чёрная Меланхолия...
Go to the top of the page
  Insert nick Quick quote
+Quote Post
post Oct 4 2021, 11:08:34
Post #5

добрый мизантроп
**************
Group: Металариец
Posts: 2,783
Releases: 1
From: Менск
On Forums: 11 years 2 months
Thanks: 1222 time(s)
Madagascar


Для французского стиля мало соплей, звучит более северо-восточно
Go to the top of the page
  Insert nick Quick quote
+Quote Post

Reply to this topicStart new topic
2 User(s) are reading this topic (2 Guests and 0 Anonymous Users)
0 Members:

 



- Lo-Fi Version Support form
Copyrights and abuse reports form
Time is now: 24th January 2022 - 14:10:45