Welcome Guest ( Log In | Register )

> Enterré Vivant - Les Ténèbres Ne Sont Pas Formées D'ombre (2021), Atmospheric Black Metal
post Sep 9 2021, 21:56:56
Post #1

Правь статус, ####!111
**************
Group: Металариец
Posts: 28,186
Releases: 20579
From: Г.Харьков
On Forums: 9 years 6 months
Thanks: 419183 time(s)
Unknown


(IMG:https://metalarea.org/images/audiocovers/2021_Sep/acov_tid355302_thumb.jpg)

*Artist: Enterré Vivant
*Album: Les Ténèbres Ne Sont Pas Formées D'ombre
*Year: 2021
*Genre: Atmospheric Black Metal
*Country: International (IMG:https://metalarea.org/forum/style_images/flags/International.png)
*Format: mp3@CBR320kbps
*Size: 122MB

Tracklist:
1. Enterré vivant 01:18
2. Fière solitude 05:47
3. Rouge 08:00
4. Haine 04:17
5. Lui 06:48
6. Shunga 02:48
7. Les ténèbres ne sont pas formées d’ombre 03:20
8. La souffrance 06:21
9. Plus de haine 01:50
10. Shiki (Instrumental) 12:25
******************************
Total playing time: 52:54




Extended info
France / Japan
Erroiak All instruments, Vocals (2019-present)
See also: Erroiak, Foghorn, Hrad, Kaldt Helvete
Sakrifiss Vocals, Lyrics (2019-present)
See also: ex-The Skaden, ex-La Faim d'Etang


Technical info
(IMG:https://metalarea.org/images/spectrogram/2021_Sep/322dea7102dbc1d8a0f5b911230d4da5.png)
Input File: 05 - Lui.mp3
Channels : 2
Sample Rate : 44100
Precision : 16-bit
Duration : 00:06:48.03 = 17994211 samples = 30602.4 CDDA sectors
File Size : 16.5M
Bit Rate : 323k
Sample Encoding: MPEG audio (layer I, II or III)
Comments :
Title=Lui
Artist=Enterré Vivant
Album=Les Ténèbres ne sont pas formées d’ombre
Tracknumber=5
Year=2021
Discnumber=1/1



Register


Go to the top of the page
  Insert nick Quick quote
+Quote Post
 
Start new topic
Replies (1 - 6)
post Sep 10 2021, 07:12:09
Post #2

Шесть Литров
******
Group: Металариец
Posts: 551
Releases: 0
From: Vilnius
On Forums: 14 years 9 months
Thanks: 183 time(s)
Lithuania


Похоже, что-то интересное-спасибо
Go to the top of the page
  Insert nick Quick quote
+Quote Post
post Sep 10 2021, 08:52:42
Post #3

Четыре Литра
****
Group: Металариец
Posts: 377
Releases: 20
From: Saint-Petersburg, Купчино
On Forums: 16 years 3 weeks
Thanks: 547 time(s)
Russian Federation


ЦИТАТА(sabr @ Sep 10 2021, 10:12:09) *
Похоже, что-то интересное-спасибо


Точно, интересное смешение Франции и Японии.
Go to the top of the page
  Insert nick Quick quote
+Quote Post
post Sep 10 2021, 11:40:17
Post #4

Маньяк
**********
Group: Металариец
Posts: 1,313
Releases: 37
From: Pietari
On Forums: 15 years 11 months
Thanks: 2165 time(s)
Russian Federation


да французская это команда, нет там никаких японцев (IMG:style_emoticons/default/smile1.gif) )
от Японии только картинка и стихи Басё на дебютнике были..... что на этом в качестве текстов - хз
Go to the top of the page
  Insert nick Quick quote
+Quote Post
post Sep 13 2021, 10:13:06
Post #5

Group: Дух
Posts: 5
Releases: 0
From: France
On Forums: 2 years 7 months
Thanks: 2 time(s)
France


На самом деле, двое музыкантов - французы, но есть один, который живет в Японии более 20 лет!
(Я знаю, потому что я один из 2)
Go to the top of the page
  Insert nick Quick quote
+Quote Post
post Sep 13 2021, 11:48:18
Post #6

Мегаманьяк
***********
Group: Металариец
Posts: 1,989
Releases: 0
On Forums: 12 years 9 months
Thanks: 826 time(s)
Antarctica


ЦИТАТА(dolmorgoth @ 13th September 2021 - 12:13:06) *
На самом деле, двое музыкантов - французы, но есть один, который живет в Японии более 20 лет!
(Я знаю, потому что я один из 2)

В группе двое французов, трое из которых - русские.
Go to the top of the page
  Insert nick Quick quote
+Quote Post
post Sep 14 2021, 10:47:27
Post #7

Group: Дух
Posts: 5
Releases: 0
From: France
On Forums: 2 years 7 months
Thanks: 2 time(s)
France


QUOTE(mittal @ 13th September 2021 - 11:48:18) *
На самом деле, двое музыкантов - французы, но есть один, который живет в Японии более 20 лет!
(Я знаю, потому что я один из 2)
В группе двое французов, трое из которых - русские.


(IMG:style_emoticons/default/15.gif)
Go to the top of the page
  Insert nick Quick quote
+Quote Post

Reply to this topicStart new topic
1 User(s) are reading this topic (1 Guests and 0 Anonymous Users)
0 Members:

 



- Lo-Fi Version Support form
Copyrights and abuse reports form
Time is now: 6th December 2021 - 00:01:36