Welcome Guest ( Log In | Register )

> Releases Upload / Добавление релизов

Добавить релиз тут / Click here to add release
Рекомендованные обменники / Recommended file shares

> Firiath - Beyond The Line (2021), Melodic Death Metal
post Sep 10 2021, 02:47:02
Post #1

Правь статус, ####!111
**************
Group: Металариец
Posts: 27,684
Releases: 20124
From: Г.Харьков
On Forums: 9 years 5 months
Thanks: 407408 time(s)
Unknown


(IMG:https://metalarea.org/images/audiocovers/2021_Sep/acov_tid355309_thumb.jpg)

*Artist: Firiath
*Album: Beyond The Line
*Year: 2021
*Genre: Melodic Death Metal
*Country: Russian Federation (IMG:https://metalarea.org/forum/style_images/flags/Russian%20Federation.png)
*Format: mp3@CBR320kbps
*Size: 89MB

Tracklist:
1. Damaged Soul
2. Heavens So Far From Us
3. Beyond The Line
4. Bloody Sand
5. Dancing With The Death
6. Hunter's Song
7. Blood On Hands
8. Silent Voice
9. See You In Hell
******************************
Total playing time: 39:25

Preview 1


Extended info




Technical info
(IMG:https://metalarea.org/images/spectrogram/2021_Sep/36bd08728aa888864cca5d37135ac860.png)
Input File: 05 - Dancing with the Death.mp3
Channels : 2
Sample Rate : 44100
Precision : 16-bit
Duration : 00:04:44.30 = 12537806 samples = 21322.8 CDDA sectors
File Size : 11.4M
Bit Rate : 320k
Sample Encoding: MPEG audio (layer I, II or III)
Comments :
Title=Dancing with the Death
Artist=Firiath
Album=Beyond The Line
Tracknumber=5
Year=2021
Genre=Metal



Register


Go to the top of the page
  Insert nick Quick quote
+Quote Post
 
Start new topic
Replies (1 - 4)
post Sep 11 2021, 12:57:41
Post #2

Это просто место… где все подошло к концу.
**************
Group: Металариец
Posts: 6,422
Releases: 0
From: Страны Мамонтов
On Forums: 14 years 8 months
Thanks: 2522 time(s)
Antarctica


Весьма неплохо
Go to the top of the page
  Insert nick Quick quote
+Quote Post
post Sep 11 2021, 13:24:12
Post #3

Три Литра
***
Group: Завсегдатай
Posts: 234
Releases: 0
From: Лиски
On Forums: 10 years 3 months
Thanks: 41 time(s)
Russian Federation


Очень плохо.
Go to the top of the page
  Insert nick Quick quote
+Quote Post
post Sep 11 2021, 13:44:07
Post #4

Это просто место… где все подошло к концу.
**************
Group: Металариец
Posts: 6,422
Releases: 0
From: Страны Мамонтов
On Forums: 14 years 8 months
Thanks: 2522 time(s)
Antarctica


ЦИТАТА(Ellaya @ Sep 11 2021, 15:24:12) *
Очень плохо.

Бананы вынь из ушей
Go to the top of the page
  Insert nick Quick quote
+Quote Post
post Sep 13 2021, 19:47:57
Post #5

Четыре Литра
****
Group: Металариец
Posts: 339
Releases: 0
From: Нижний Новгород
On Forums: 11 years 11 months
Thanks: 66 time(s)
Russian Federation


Кстати, хороший такой альбомец. In flames чем-то напомнили..

А теперь мерещатся куски амон амарат и чилдренов. (IMG:style_emoticons/default/fear.gif)
Go to the top of the page
  Insert nick Quick quote
+Quote Post

Reply to this topicStart new topic
1 User(s) are reading this topic (1 Guests and 0 Anonymous Users)
0 Members:

 



- Lo-Fi Version Support form
Copyrights and abuse reports form
Time is now: 20th October 2021 - 13:40:10