Welcome Guest ( Log In | Register )

> Nean - I [ep] (2021), Raw Black Metal
post Sep 10 2021, 18:54:38
Post #1

Правь статус, 616
**************
Group: Металариец
Posts: 7,776
Releases: 6142
From: 55°35’N 38°08’E
On Forums: 14 years 1 month
Thanks: 112840 time(s)
Russian Federation


(IMG:https://metalarea.org/images/audiocovers/2021_Sep/acov_tid355337_thumb.jpg)

*Artist: Nean
*Album: I [ep]
*Year: 2021
*Genre: Raw Black Metal
*Country: France (IMG:https://metalarea.org/forum/style_images/flags/France.png)
*Format: mp3@CBR320kbps
*Size: 52MB

Tracklist:
1.I. Le Sang Noir De La Haine 01:37
2.II. Faceless Worshippers 04:14
3.III. Cycle Of Deceit 04:30
4.IV. Living Specter 04:42
5.V. A God For Insects 06:09
6.VI. Redemption Par Le Malheur 01:08
******************************
Total playing time: 22:20



(IMG:https://metalarea.org/images/youtube.png)

Technical info
(IMG:https://metalarea.org/images/spectrogram/2021_Sep/652b69adcfed4c7c7d047c55ea33d549.png)
Input File: 02 II. Faceless Worshippers.mp3
Channels : 2
Sample Rate : 44100
Precision : 16-bit
Duration : 00:04:15.10 = 11250042 samples = 19132.7 CDDA sectors
File Size : 10.3M
Bit Rate : 322k
Sample Encoding: MPEG audio (layer I, II or III)
Comments :
Title=II. Faceless Worshippers
Artist=NEAN
Album=I
Tracknumber=2
Year=2021
Genre=Black Metal



Register


Go to the top of the page
  Insert nick Quick quote
+Quote Post
 
Start new topic
Replies (1 - 3)
post Jul 8 2022, 20:17:23
Post #2

Три Литра
***
Group: Завсегдатай
Posts: 280
Releases: 4
From: урал
On Forums: 12 years 9 months
Thanks: 378 time(s)
Russian Federation


Перезалейте!
Go to the top of the page
  Insert nick Quick quote
+Quote Post
post Aug 5 2022, 23:52:38
Post #3

Правь статус, 616
**************
Group: Металариец
Posts: 7,776
Releases: 6142
From: 55°35’N 38°08’E
On Forums: 14 years 1 month
Thanks: 112840 time(s)
Russian Federation


CBR320kbps

Register


FLAC

Register


Go to the top of the page
  Insert nick Quick quote
+Quote Post
post Aug 7 2022, 04:22:28
Post #4

Black Death Grind Madness
******
Group: Металариец
Posts: 585
Releases: 0
From: Cassilandia
On Forums: 14 years 1 month
Thanks: 70 time(s)
Brazil


QUOTE(smysl @ Aug 6 2022, 01:52:38) *
CBR320kbps



FLAC

(IMG:style_emoticons/default/9.gif)
Go to the top of the page
  Insert nick Quick quote
+Quote Post

Reply to this topicStart new topic
2 User(s) are reading this topic (2 Guests and 0 Anonymous Users)
0 Members:

 



- Lo-Fi Version Support form
Copyrights and abuse reports form
Time is now: 15th August 2022 - 22:28:02