Welcome Guest ( Log In | Register )

> Mitochondrial Sun - Bodies And Gold [ep] (2021), Atmospheric Black Metal/Electronic
post Sep 11 2021, 07:50:46
Post #1

Маньяк
**********
Group: Металариец
Posts: 1,469
Releases: 118
On Forums: 8 years 1 month
Thanks: 3604 time(s)
Unknown


(IMG:https://metalarea.org/images/audiocovers/2021_Sep/acov_tid355373_thumb.jpg)

*Artist: Mitochondrial Sun
*Album: Bodies And Gold [ep]
*Year: 2021
*Genre: Atmospheric Black Metal/Electronic
*Country: Sweden (IMG:https://metalarea.org/forum/style_images/flags/Sweden.png)
*Format: mp3@CBR320kbps
*Size: 61MB

Tracklist:
01. Sic Transit Anima Mundi 04:12
02. Bodies and Gold 02:54
03. Ghost of Tradition 05:10
04. Beams of Light through Glass 04:19
05. Rigel Illuminated 03:46
06. Velocities 06:12
******************************
Total playing time: 26:33

Extended info


Technical info
(IMG:https://metalarea.org/images/spectrogram/2021_Sep/af8dae891cbb10fad6d9ab103592e6cc.png)
Input File: Mitochondrial Sun - Bodies and Gold - 01 Sic Transit Anima Mundi.mp3
Channels : 2
Sample Rate : 44100
Precision : 16-bit
Duration : 00:04:12.10 = 11117390 samples = 18907.1 CDDA sectors
File Size : 10.2M
Bit Rate : 324k
Sample Encoding: MPEG audio (layer I, II or III)
Comments :
Title=Sic Transit Anima Mundi
Artist=Mitochondrial Sun
Album=Bodies and Gold
Tracknumber=1
Year=2021



Register


Go to the top of the page
  Insert nick Quick quote
+Quote Post
 
Start new topic
Replies (1 - 9)
post Sep 11 2021, 18:25:11
Post #2

Четыре Литра
****
Group: Металариец
Posts: 324
Releases: 0
From: минск сити
On Forums: 12 years 5 months
Thanks: 168 time(s)
Belarus


Это определённо неформат.
Go to the top of the page
  Insert nick Quick quote
+Quote Post
post Sep 11 2021, 20:56:25
Post #3

Ледоруб
**************
Group: Металариец
Posts: 29,378
Releases: 0
From: Санкт-Петербург
On Forums: 12 years 2 months
Thanks: 10534 time(s)
Russian Federation


И определённо зарубка.


Thanks:
(1) featb,
Go to the top of the page
  Insert nick Quick quote
+Quote Post
post Sep 11 2021, 22:06:11
Post #4

Два Литра
**
Group: Завсегдатай
Posts: 100
Releases: 0
On Forums: 14 years 6 months
Thanks: 73 time(s)
Russian Federation


QUOTE(дивин @ Sep 11 2021, 20:25:11) *
Это определённо неформат.


Это определенно формат.
Go to the top of the page
  Insert nick Quick quote
+Quote Post
post Sep 12 2021, 05:31:28
Post #5

Мегаманьяк
***********
Group: Металариец
Posts: 1,765
Releases: 576
On Forums: 11 years 2 weeks
Thanks: 12324 time(s)
Italy


*Genre: Atmospheric Black Metal/Electronic (IMG:style_emoticons/default/23.gif)
*Genre: Electronic Ambient/Soundscape
Go to the top of the page
  Insert nick Quick quote
+Quote Post
post Sep 12 2021, 09:19:18
Post #6

Четыре Литра
****
Group: Металариец
Posts: 378
Releases: 20
From: Saint-Petersburg, Купчино
On Forums: 16 years 3 weeks
Thanks: 547 time(s)
Russian Federation


Гитарист научился в клавишные, неинтересно, даже как неформат.
Go to the top of the page
  Insert nick Quick quote
+Quote Post
post Sep 12 2021, 10:01:28
Post #7

Ледоруб
**************
Group: Металариец
Posts: 29,378
Releases: 0
From: Санкт-Петербург
On Forums: 12 years 2 months
Thanks: 10534 time(s)
Russian Federation


Он так-то давно в клавиши умел.
Go to the top of the page
  Insert nick Quick quote
+Quote Post
post Sep 12 2021, 18:20:33
Post #8

член общества защитников попсы
********
Group: Металариец
Posts: 894
Releases: 1
From: Полтава
On Forums: 11 years 2 months
Thanks: 532 time(s)
Ukraine


Электро-индастриал, надо же. Неформат, но слушается приятно.
Go to the top of the page
  Insert nick Quick quote
+Quote Post
post Sep 12 2021, 20:13:20
Post #9

Три Литра
***
Group: Завсегдатай
Posts: 216
Releases: 5
On Forums: 3 years 9 months
Thanks: 722 time(s)
Unknown


" Atmospheric Black Metal "

Atmospheric Black Metal - Not even close
Atmospheric - No
Black - No
Metal - Hell no


Thanks:
(1) featb,
Go to the top of the page
  Insert nick Quick quote
+Quote Post
post Sep 13 2021, 02:17:37
Post #10

Ледоруб
**************
Group: Металариец
Posts: 29,378
Releases: 0
From: Санкт-Петербург
On Forums: 12 years 2 months
Thanks: 10534 time(s)
Russian Federation


ЦИТАТА(witchfinder @ 12th September 2021 - 22:13:20) *
Atmospheric

Yes.
Go to the top of the page
  Insert nick Quick quote
+Quote Post

Reply to this topicStart new topic
1 User(s) are reading this topic (1 Guests and 0 Anonymous Users)
0 Members:

 



- Lo-Fi Version Support form
Copyrights and abuse reports form
Time is now: 9th December 2021 - 06:34:22