Welcome Guest ( Log In | Register )

> И неформату есть предел.

Рэп/хип-хоп/шансон/поп удаляются. Для них есть свои порталы.

> Hawkwind - Somnia (2021), Psychedelic/Space Rock (D7)
post Sep 11 2021, 14:50:53
Post #1

Правь статус, ####!111
**************
Group: Металариец
Posts: 49,248
Releases: 874
On Forums: 12 years 4 months
Thanks: 44818 time(s)
Russian Federation


(IMG:http://metalarea.org/images/audiocovers/2021_Sep/acov_tid355383_thumb.jpg)

*Artist: Hawkwind
*Album: Somnia
*Year: 2021
*Genre: Psychedelic/Space Rock
*Country: United Kingdom (IMG:http://metalarea.org/forum/style_images/flags/United%20Kingdom.png)
*Format: mp3@CBR320kbps
*Size: 145MB

Tracklist:
1. Unsomnia 10:20
2. Strange Encounters 06:34
3. Alcyone 05:28
4. Counting Sheep 03:24
5. China Blues 07:23
6. It's Only A Dream 03:17
7. Meditation 04:20
8. Sweet Dreams 02:20
9. I Can't Get You Off My Mind 03:58
10. Small Objects In Space 05:07
11. Pulsestar 01:44
12. Barkus 04:46
13. Cave Of Phantom Dreams 04:13
******************************
Total playing time: 1:02:54

(IMG:http://metalarea.org/images/youtube.png)

Technical info
(IMG:http://metalarea.org/images/spectrogram/2021_Sep/66aab13d0b5ffe7827352b74ea10080a.png)
Input File: 01 - Unsomnia.mp3
Channels : 2
Sample Rate : 44100
Precision : 16-bit
Duration : 00:10:20.00 = 27342000 samples = 46500 CDDA sectors
File Size : 24.9M
Bit Rate : 322k
Sample Encoding: MPEG audio (layer I, II or III)
Comments :
Title=Unsomnia
Artist=Hawkwind
Album=Somnia
Tracknumber=1
Year=2021-09-10
Genre=Progressive Rock
Discnumber=1



Register


Go to the top of the page
  Insert nick Quick quote
+Quote Post
 
Start new topic
Replies (1 - 5)
post Sep 12 2021, 08:49:08
Post #2

Шесть Литров
******
Group: Металариец
Posts: 505
Releases: 0
From: Ташкент
On Forums: 13 years 8 months
Thanks: 162 time(s)
Uzbekistan


Уже и Лемми шесть лет как почил, а этим всё нипочём.
Go to the top of the page
  Insert nick Quick quote
+Quote Post
post Sep 12 2021, 12:24:24
Post #3

brutalcesar
**************
Group: Металариец
Posts: 18,250
Releases: 71
From: Рязань
On Forums: 12 years 8 months
Thanks: 10366 time(s)
Russian Federation


Да им уже по 80 лет должно быть! Неужели Брон в состоянии что-то ещё делать?!
Go to the top of the page
  Insert nick Quick quote
+Quote Post
post Sep 12 2021, 12:55:37
Post #4

Правь статус, ####!111
**************
Group: Металариец
Posts: 49,248
Releases: 874
On Forums: 12 years 4 months
Thanks: 44818 time(s)
Russian Federation


ЦИТАТА(cesar @ Sep 12 2021, 15:24:24) *
Да им уже по 80 лет должно быть!


Так и есть, Броку в августе исполнилось)

Go to the top of the page
  Insert nick Quick quote
+Quote Post
post Sep 12 2021, 18:01:07
Post #5

член общества защитников попсы
********
Group: Металариец
Posts: 893
Releases: 1
From: Полтава
On Forums: 11 years 3 weeks
Thanks: 532 time(s)
Ukraine


Очень нехоквиндовский Хоквинд, даже подумал, что какую-то другую группу подслили шутки ради. А потом поглядел авторство песен - ба, дак так половину новый гитарист написал. Много современного музла, эдакий чиллаут-рок получился, почти без собсно психодела.
Go to the top of the page
  Insert nick Quick quote
+Quote Post
post Sep 22 2021, 07:13:05
Post #6

Шесть Литров
******
Group: Металариец
Posts: 514
Releases: 0
From: Vilnius
On Forums: 14 years 7 months
Thanks: 177 time(s)
Lithuania


На удивление, слушается весьма неплохо-приятно удивлен
Go to the top of the page
  Insert nick Quick quote
+Quote Post

Reply to this topicStart new topic
1 User(s) are reading this topic (1 Guests and 0 Anonymous Users)
0 Members:

 



- Lo-Fi Version Support form
Copyrights and abuse reports form
Time is now: 16th October 2021 - 19:08:03