Welcome Guest ( Log In | Register )

> Releases Upload / Добавление релизов

Добавить релиз тут / Click here to add release
Рекомендованные обменники / Recommended file shares

> Devcord - Godisnowhere (2021), Progressive Death Metal/Rock
post Sep 11 2021, 18:21:54
Post #1

Правь статус, ####!111
**************
Group: Металариец
Posts: 27,685
Releases: 20124
From: Г.Харьков
On Forums: 9 years 5 months
Thanks: 407438 time(s)
Unknown


(IMG:https://metalarea.org/images/audiocovers/2021_Sep/acov_tid355391_thumb.jpg)

*Artist: Devcord
*Album: Godisnowhere
*Year: 2021
*Genre: Progressive Death Metal/Rock
*Country: Austria (IMG:https://metalarea.org/forum/style_images/flags/Austria.png)
*Format: mp3@CBR320kbps
*Size: 152MB

Tracklist:
1. Parasomnia 08:44
2. Trail of Decline 08:54
3. Beyond the Pale 07:32
4. Silhouette 05:21
5. Scourge of the Present 10:11
6. A Joykiller Called Death 05:31
7. Tournament 04:13
8. The Lament 06:29
9. Entreat the Purge 10:26
******************************
Total playing time: 1:07:21




Extended info
Peter Royburger Everything


Technical info
(IMG:https://metalarea.org/images/spectrogram/2021_Sep/84f1dc9285a63c83c9f2d880cdede11f.png)
Input File: 08. The Lament.mp3
Channels : 2
Sample Rate : 44100
Precision : 16-bit
Duration : 00:06:29.75 = 17187799 samples = 29231 CDDA sectors
File Size : 15.6M
Bit Rate : 320k
Sample Encoding: MPEG audio (layer I, II or III)
Comments :
Title=The Lament
Artist=Devcord
Album=Godisnowhere
Tracknumber=8
Year=2021
Genre=Metal



Register


Go to the top of the page
  Insert nick Quick quote
+Quote Post
 
Start new topic
Replies (1 - 1)
post Sep 13 2021, 15:35:15
Post #2

Два Литра
**
Group: Завсегдатай
Posts: 139
Releases: 0
On Forums: 4 years 6 months
Thanks: 49 time(s)
Russian Federation


Интересная группа. Местами Войводовские штуки встречаются.


Thanks:
(1) station10,
Go to the top of the page
  Insert nick Quick quote
+Quote Post

Reply to this topicStart new topic
1 User(s) are reading this topic (1 Guests and 0 Anonymous Users)
0 Members:

 



- Lo-Fi Version Support form
Copyrights and abuse reports form
Time is now: 20th October 2021 - 15:23:18