Welcome Guest ( Log In | Register )

> Posthumous - Unholy Ceremony (2021), Melodic Black/Death Metal (D5)
post Sep 11 2021, 19:48:26
Post #1

Правь статус, 616
**************
Group: Металариец
Posts: 7,221
Releases: 5651
From: 55°35’N 38°08’E
On Forums: 13 years 4 months
Thanks: 104088 time(s)
Unknown


(IMG:https://metalarea.org/images/audiocovers/2021_Sep/acov_tid355395_thumb.jpg)

*Artist: Posthumous
*Album: Unholy Ceremony
*Year: 2021
*Genre: Melodic Black/Death Metal
*Country: Brazil (IMG:https://metalarea.org/forum/style_images/flags/Brazil.png)
*Format: mp3@VBR283kbps
*Size: 89MB

Tracklist:
1. ...Still Bleeding... 01:26
2. Unholy Necrometal Artillery 04:35
3. 666 Ways To Kill 03:40
4. The Crown Belongs To The Bravest Knight 04:58
5. On The Wings Of Azazel 04:29
6. Hawkeyes Towards Victory 03:42
7. Tyrants Pray Disaster 04:34
8. Metallic Overture Of Aggression 03:31
9. Glory To The Forthcoming Crystal Age (The Next Millennium Is Ours) 03:22
10. Under The New Moon, We Summon It 01:30
11. Shub-Niggurath Ye Goat 05:55
******************************
Total playing time: 41:42


(IMG:https://metalarea.org/images/youtube.png)

Extended info
CD, Hammer of Damnation (HOD220)


Technical info
(IMG:https://metalarea.org/images/spectrogram/2021_Sep/f9bf400f0e531d53e5ee5d57d7a920aa.png)
Input File: 02 Unholy Necrometal Artillery.mp3
Channels : 2
Sample Rate : 44100
Precision : 16-bit
Duration : 00:04:35.75 = 12160487 samples = 20681.1 CDDA sectors
File Size : 9.68M
Bit Rate : 281k
Sample Encoding: MPEG audio (layer I, II or III)
Comments :
Title=Unholy Necrometal Artillery
Artist=Posthumous
Album=Unholy Ceremony
Tracknumber=2/11
Year=2021
Genre=Black Metal



Register


Go to the top of the page
  Insert nick Quick quote
+Quote Post
 
Start new topic
Replies (1 - 1)
post Sep 14 2021, 13:39:29
Post #2

Group: Дух
Posts: 3
Releases: 0
On Forums: 14 years 6 months
Thanks: 2 time(s)
Afghanistan


ЦИТАТА(smysl @ Sep 11 2021, 21:48:26) *
https://metalarea.org/images/audiocovers/20...55395_thumb.jpg

*Artist: Posthumous
*Album: Unholy Ceremony
*Year: 2021
*Genre: Melodic Black/Death Metal
*Country: Brazil https://metalarea.org/forum/style_images/flags/Brazil.png
*Format: mp3@VBR283kbps
*Size: 89MB

Tracklist:
1. ...Still Bleeding... 01:26
2. Unholy Necrometal Artillery 04:35
3. 666 Ways To Kill 03:40
4. The Crown Belongs To The Bravest Knight 04:58
5. On The Wings Of Azazel 04:29
6. Hawkeyes Towards Victory 03:42
7. Tyrants Pray Disaster 04:34
8. Metallic Overture Of Aggression 03:31
9. Glory To The Forthcoming Crystal Age (The Next Millennium Is Ours) 03:22
10. Under The New Moon, We Summon It 01:30
11. Shub-Niggurath Ye Goat 05:55
******************************
Total playing time: 41:42


https://metalarea.org/images/youtube.png

Extended info
CD, Hammer of Damnation (HOD220)


Technical info
https://metalarea.org/images/spectrogram/20...d57d7a920aa.png
Input File: 02 Unholy Necrometal Artillery.mp3
Channels : 2
Sample Rate : 44100
Precision : 16-bit
Duration : 00:04:35.75 = 12160487 samples = 20681.1 CDDA sectors
File Size : 9.68M
Bit Rate : 281k
Sample Encoding: MPEG audio (layer I, II or III)
Comments :
Title=Unholy Necrometal Artillery
Artist=Posthumous
Album=Unholy Ceremony
Tracknumber=2/11
Year=2021
Genre=Black Metal


Исправьте ссылку на mediafire
Go to the top of the page
  Insert nick Quick quote
+Quote Post

Reply to this topicStart new topic
1 User(s) are reading this topic (1 Guests and 0 Anonymous Users)
0 Members:

 



- Lo-Fi Version Support form
Copyrights and abuse reports form
Time is now: 3rd December 2021 - 05:53:02