Welcome Guest ( Log In | Register )

> Releases Upload / Добавление релизов

Добавить релиз тут / Click here to add release
Рекомендованные обменники / Recommended file shares

 
Reply to this topicStart new topic
> Sombre Figures - Sombre Figures [demo] (2018), Raw Black Metal
post Sep 12 2021, 18:06:20
Post #1

Правь статус, ####!111
**************
Group: Металариец
Posts: 2,336
Releases: 1887
From: Praha
On Forums: 7 years 5 months
Thanks: 50242 time(s)
Czech Republic


(IMG:http://metalarea.org/images/audiocovers/2021_Sep/acov_tid355433_thumb.jpg)

*Artist: Sombre Figures
*Album: Sombre Figures [demo]
*Year: 2018
*Genre: Raw Black Metal
*Country: Finland (IMG:http://metalarea.org/forum/style_images/flags/Finland.png)
*Format: mp3@CBR320kbps
*Size: 54MB

Tracklist:
A1. From The Ashes
A2. Chain Of Command
A3. Burialsite
A4. Sombre Figures
******************************
Total playing time: 23:00

Extended info
Tape-rip + Scans


Technical info
(IMG:http://metalarea.org/images/spectrogram/2021_Sep/696092f2cbd3a1350327dc3f0b0a48d7.png)
Input File: 02. Chain Of Command.mp3
Channels : 2
Sample Rate : 48000
Precision : 16-bit
Duration : 00:05:55.01 = 17040528 samples ~ 26625.8 CDDA sectors
File Size : 14.4M
Bit Rate : 324k
Sample Encoding: MPEG audio (layer I, II or III)
Comments :
Title=Chain Of Command
Artist=Sombre Figures
Album=Sombre Figures
Tracknumber=02/04
Year=2018
Genre=Raw Black Metal



Register


Go to the top of the page
  Insert nick Quick quote
+Quote Post

Reply to this topicStart new topic
1 User(s) are reading this topic (1 Guests and 0 Anonymous Users)
0 Members:

 



- Lo-Fi Version Support form
Copyrights and abuse reports form
Time is now: 24th September 2021 - 02:08:38