Welcome Guest ( Log In | Register )

> Releases Upload / Добавление релизов

Добавить релиз тут / Click here to add release
Рекомендованные обменники / Recommended file shares

> Sombre Figures - Sombre Figures [demo] (2018), Raw Black Metal
post Sep 12 2021, 18:06:20
Post #1

Правь статус, ####!111
**************
Group: Металариец
Posts: 2,352
Releases: 1900
From: Praha
On Forums: 7 years 6 months
Thanks: 50659 time(s)
Czech Republic


(IMG:http://metalarea.org/images/audiocovers/2021_Sep/acov_tid355433_thumb.jpg)

*Artist: Sombre Figures
*Album: Sombre Figures [demo]
*Year: 2018
*Genre: Raw Black Metal
*Country: Finland (IMG:http://metalarea.org/forum/style_images/flags/Finland.png)
*Format: mp3@CBR320kbps
*Size: 54MB

Tracklist:
A1. From The Ashes
A2. Chain Of Command
A3. Burialsite
A4. Sombre Figures
******************************
Total playing time: 23:00

Extended info
Tape-rip + Scans


Technical info
(IMG:http://metalarea.org/images/spectrogram/2021_Sep/696092f2cbd3a1350327dc3f0b0a48d7.png)
Input File: 02. Chain Of Command.mp3
Channels : 2
Sample Rate : 48000
Precision : 16-bit
Duration : 00:05:55.01 = 17040528 samples ~ 26625.8 CDDA sectors
File Size : 14.4M
Bit Rate : 324k
Sample Encoding: MPEG audio (layer I, II or III)
Comments :
Title=Chain Of Command
Artist=Sombre Figures
Album=Sombre Figures
Tracknumber=02/04
Year=2018
Genre=Raw Black Metal



Register


Go to the top of the page
  Insert nick Quick quote
+Quote Post
 
Start new topic
Replies (1 - 2)
post Oct 15 2021, 12:53:10
Post #2

добрый мизантроп
**************
Group: Металариец
Posts: 2,477
Releases: 1
From: Менск
On Forums: 10 years 11 months
Thanks: 1096 time(s)
Madagascar


preview
https://w1.musify.club/release/sombre-figur...es-2018-1544728
Go to the top of the page
  Insert nick Quick quote
+Quote Post
post Oct 16 2021, 00:22:33
Post #3

Absorbence
***********
Group: Металариец
Posts: 1,794
Releases: 216
From: Vastland Abyss of Cthulhu
On Forums: 14 years 11 months
Thanks: 3962 time(s)
Canada


epic feelings of listening to Warloghe
Go to the top of the page
  Insert nick Quick quote
+Quote Post

Reply to this topicStart new topic
1 User(s) are reading this topic (1 Guests and 0 Anonymous Users)
0 Members:

 



- Lo-Fi Version Support form
Copyrights and abuse reports form
Time is now: 20th October 2021 - 14:11:41