Welcome Guest ( Log In | Register )

> Releases Upload / Добавление релизов

Добавить релиз тут / Click here to add release
Рекомендованные обменники / Recommended file shares

> Riders On The Bones - Obelus (2021), Doom/Death Metal
post Sep 12 2021, 18:58:57
Post #1

Правь статус, ####!111
**************
Group: Металариец
Posts: 4,355
Releases: 3996
From: Одесса
On Forums: 13 years 4 months
Thanks: 44169 time(s)
Ukraine


(IMG:http://metalarea.org/images/audiocovers/2021_Sep/acov_tid355434_thumb.jpg)

*Artist: Riders On The Bones
*Album: Obelus
*Year: 2021
*Genre: Doom/Death Metal
*Country: Russian Federation (IMG:http://metalarea.org/forum/style_images/flags/Russian%20Federation.png)
*Format: mp3@CBR320kbps
*Size: 100MB

Tracklist:
1. Obelus 05:55
2. Interrobang 05:05
3. Paresthesean 04:46
4. Mare Imbrium 04:24
5. Thwarted 04:47
6. Petrichor 05:44
7. Phosphene 05:00
8. Frisson 04:45
9. You Are Invited to Masquerade! 01:40
******************************
Total playing time: 42:06

Extended info
Line - up:

Lefthander - All instruments (Harmahis, Lefthander, Raxa, Sea of Desperation, Tenochtitlan, Старшие Арканы, ex-Lamia Phantasma, ex-Инкунабункул, Ethnico, ex-Fatal Rampage, ex-Groves in Mist, ex-Rintra, ex-Откровение 95, ex-Самониос)
IOS - Samples



Technical info
(IMG:http://metalarea.org/images/spectrogram/2021_Sep/efa1c726b93a176247d302cfab9282bb.png)
Input File: 03. Paresthesean.mp3
Channels : 2
Sample Rate : 44100
Precision : 16-bit
Duration : 00:04:46.24 = 12623272 samples = 21468.1 CDDA sectors
File Size : 11.5M
Bit Rate : 320k
Sample Encoding: MPEG audio (layer I, II or III)
Comments :
Title=Paresthesean
Artist=Riders On The Bones
Album=Obelus
Tracknumber=3
Year=2021
Genre=Doom | Death Metal



Register


Go to the top of the page
  Insert nick Quick quote
+Quote Post
 
Start new topic
Replies (1 - 5)
post Sep 13 2021, 12:38:39
Post #2

Маньяк
**********
Group: Металариец
Posts: 1,008
Releases: 0
From: China
On Forums: 13 years 9 months
Thanks: 769 time(s)
Bulgaria


all-instrumental epic/traditional doom... pretty unusual, but very well done, with some more complex, near-progressive tendencies as well
Go to the top of the page
  Insert nick Quick quote
+Quote Post
post Sep 13 2021, 15:49:05
Post #3

Четыре Литра
****
Group: Металариец
Posts: 337
Releases: 0
On Forums: 3 years 8 months
Thanks: 135 time(s)
Belarus


Ничего общего с Doom Death Metal. Светлая и радостная инструментальная музыка.
Go to the top of the page
  Insert nick Quick quote
+Quote Post
post Sep 13 2021, 19:12:06
Post #4

Ёлд ХеллоВяйне
Group Icon
Group: V.I.P
Posts: 32,208
Releases: 144
From: Питер
On Forums: 15 years 23 minutes
Thanks: 20172 time(s)
Russian Federation


Левша обычно фигни не делает, но и особо интересно в этот раз не получилось.
Go to the top of the page
  Insert nick Quick quote
+Quote Post
post Sep 15 2021, 07:40:03
Post #5

Три Литра
***
Group: Завсегдатай
Posts: 241
Releases: 0
From: TheМля
On Forums: 15 years 1 month
Thanks: 75 time(s)
Belarus


А что, шестеркина забанили?
Go to the top of the page
  Insert nick Quick quote
+Quote Post
post Sep 25 2021, 15:29:50
Post #6

Правь статус, ####!111
**************
Group: Металариец
Posts: 4,481
Releases: 17
From: Holland
On Forums: 15 years 3 months
Thanks: 1476 time(s)
Netherlands


Левша действительно очень хорош, но отсутствие вокала заставляет пройти мимо, увы
Go to the top of the page
  Insert nick Quick quote
+Quote Post

Reply to this topicStart new topic
1 User(s) are reading this topic (1 Guests and 0 Anonymous Users)
0 Members:

 



- Lo-Fi Version Support form
Copyrights and abuse reports form
Time is now: 25th October 2021 - 20:12:58