Welcome Guest ( Log In | Register )

> Releases Upload / Добавление релизов

Добавить релиз тут / Click here to add release
Рекомендованные обменники / Recommended file shares

> Necrosound - Addiction For Lust And Perversion (2020), Black Metal
post Sep 12 2021, 19:29:07
Post #1

Правь статус, ####!616
**************
Group: Металариец
Posts: 7,184
Releases: 5616
From: 55°35’N 38°08’E
On Forums: 13 years 3 months
Thanks: 102367 time(s)
Unknown


(IMG:https://metalarea.org/images/audiocovers/2021_Sep/acov_tid355435_thumb.jpg)

*Artist: Necrosound
*Album: Addiction For Lust And Perversion
*Year: 2020
*Genre: Black Metal
*Country: Brazil (IMG:https://metalarea.org/forum/style_images/flags/Brazil.png)
*Format: mp3@VBR256kbps
*Size: 65MB

Tracklist:
1. Pleasure and Insanity 05:31
2. Sick Assassins 04:12
3. Destroy the Worms 05:43
4. Discovering the pleasure of the Flesh 06:57
5. Dilacerating the Gospel (Impurity cover) 03:21
6. Outbreak of Evil (live) 03:17
7. Vicious, Pain and Anguish (live) 02:27
8. The Single Certain (live) 01:56
******************************
Total playing time: 33:24

Technical info
(IMG:https://metalarea.org/images/spectrogram/2021_Sep/f1f6b7876221026357af07fa4f49225e.png)
Input File: 03 Destroy the Worms.mp3
Channels : 2
Sample Rate : 44100
Precision : 16-bit
Duration : 00:05:43.04 = 15128064 samples = 25728 CDDA sectors
File Size : 10.6M
Bit Rate : 248k
Sample Encoding: MPEG audio (layer I, II or III)
Comments :
Title=Destroy the Worms
Artist=Necrosound
Album=Addiction for Lust and Perversion
Tracknumber=3/8
Year=2020
Genre=Black Metal



Register


Go to the top of the page
  Insert nick Quick quote
+Quote Post
 
Start new topic
Replies (1 - 1)
post Sep 23 2021, 06:27:55
Post #2

Два Литра
**
Group: Завсегдатай
Posts: 159
Releases: 5
From: Москва
On Forums: 14 years 8 months
Thanks: 139 time(s)
Russian Federation


https://www.youtube.com/watch?v=f9ftdjoqB8s


Thanks:
(1) Storky,
Go to the top of the page
  Insert nick Quick quote
+Quote Post

Reply to this topicStart new topic
2 User(s) are reading this topic (2 Guests and 0 Anonymous Users)
0 Members:

 



- Lo-Fi Version Support form
Copyrights and abuse reports form
Time is now: 16th October 2021 - 10:00:53