Welcome Guest ( Log In | Register )

> Releases Upload / Добавление релизов

Добавить релиз тут / Click here to add release
Рекомендованные обменники / Recommended file shares

> Lucifer Impaled - Blood​.​ War​.​ Supremacy [ep] (2020), Black Metal
post Sep 12 2021, 19:29:58
Post #1

Пять Литров
*****
Group: Металариец
Posts: 408
Releases: 77
On Forums: 2 years 4 months
Thanks: 1197 time(s)
Russian Federation


(IMG:https://metalarea.org/images/audiocovers/2021_Sep/acov_tid355436_thumb.jpg)

*Artist: Lucifer Impaled
*Album: Blood​.​ War​.​ Supremacy [ep]
*Year: 2020
*Genre: Unblack Metal
*Country: Canada (IMG:https://metalarea.org/forum/style_images/flags/Canada.png)
*Format: mp3@CBR320kbps
*Size: 33MB

Tracklist:
1. Armageddon 00:59
2. Legions of the Cross 04:14
3. Winds of Lust 03:07
4. Nuclear Desecration of Satanic Might 02:33
5. Blood. War. Supremacy. 03:53
******************************
Total playing time: 14:46





Technical info
(IMG:https://metalarea.org/images/spectrogram/2021_Sep/3cbe9abb88e51c939342a62389a9ad47.png)
Input File: 05 Blood.War.Supremacy.mp3
Channels : 2
Sample Rate : 44100
Precision : 16-bit
Duration : 00:03:56.29 = 10420389 samples = 17721.8 CDDA sectors
File Size : 9.56M
Bit Rate : 324k
Sample Encoding: MPEG audio (layer I, II or III)
Comments :
Title=Blood.War.Supremacy
Artist=Lucifer Impaled
Album=Blood.War.Supremacy
Tracknumber=5
Year=2020



Register


Go to the top of the page
  Insert nick Quick quote
+Quote Post
 
Start new topic
Replies (1 - 6)
post Sep 13 2021, 05:08:16
Post #2

A.M.S.G.
**************
Group: Металариец
Posts: 2,692
Releases: 52
From: Sitra Achra
On Forums: 13 years 5 months
Thanks: 1688 time(s)
Unknown


Lyrical themes: Christianity (IMG:style_emoticons/default/22.gif)


Thanks:
(1) waffenss,
Go to the top of the page
  Insert nick Quick quote
+Quote Post
post Sep 13 2021, 09:39:02
Post #3

Три Литра
***
Group: Завсегдатай
Posts: 203
Releases: 0
On Forums: 2 years 4 months
Thanks: 11 time(s)
Russian Federation


"Christian Black Metal" уже звучит как профанация и посмешище (овцы за волков), а "Козлятина"/war metal так вообще без комментариев))))
Парнишка наслушался Revenge и думает что сможет совместить свои раболепные верования с музыкой, чьей сутью и духом является открытое Восстание и попрание многих ограничений, сложившихся в обществе на протяжении веков.
Выглядит комично, как попугайчик ара, пытающийся косить под ястреба.


Thanks:
(1) SSWolf88,
Go to the top of the page
  Insert nick Quick quote
+Quote Post
post Sep 13 2021, 16:21:50
Post #4

Мегаманьяк
***********
Group: Металариец
Posts: 1,519
Releases: 0
From: Canada
On Forums: 8 years 10 months
Thanks: 946 time(s)
Canada


Should be banned or called unblack! (IMG:style_emoticons/default/t3741.gif) (IMG:style_emoticons/default/poster_ban.gif) (IMG:style_emoticons/default/poster_ban.gif) (IMG:style_emoticons/default/offtopic2.gif) (IMG:style_emoticons/default/23.gif) (IMG:style_emoticons/default/23.gif)
Go to the top of the page
  Insert nick Quick quote
+Quote Post
post Sep 13 2021, 20:56:41
Post #5

Watch The Water
*********
Group: Металариец
Posts: 969
Releases: 30
On Forums: 14 years 7 months
Thanks: 1335 time(s)
El Salvador


В реалиах насквозь атеистического прогрессивного западного общества быть христианином куда больше "ребеллион", чем быть маминым ссатанистом.
Go to the top of the page
  Insert nick Quick quote
+Quote Post
post Sep 13 2021, 21:30:37
Post #6

Два Литра
**
Group: Завсегдатай
Posts: 154
Releases: 0
From: Калуга
On Forums: 3 years 7 months
Thanks: 40 time(s)
Russian Federation


я надеюсь он взял благословение?
Go to the top of the page
  Insert nick Quick quote
+Quote Post
post Sep 15 2021, 00:38:08
Post #7

Четыре Литра
****
Group: Металариец
Posts: 395
Releases: 0
On Forums: 12 years 8 months
Thanks: 305 time(s)
Brazil


Перевернутые кресты - это, видать, какое-то новое веяние в анблэке.
Go to the top of the page
  Insert nick Quick quote
+Quote Post

Reply to this topicStart new topic
2 User(s) are reading this topic (2 Guests and 0 Anonymous Users)
0 Members:

 



- Lo-Fi Version Support form
Copyrights and abuse reports form
Time is now: 25th September 2021 - 12:23:27