Welcome Guest ( Log In | Register )

> Releases Upload / Добавление релизов

Добавить релиз тут / Click here to add release
Рекомендованные обменники / Recommended file shares

> Blutfaust - Muerte Al Mundo Moderno (2021), Black Metal
post Sep 12 2021, 20:10:23
Post #1

Правь статус, ####!616
**************
Group: Металариец
Posts: 7,184
Releases: 5619
From: 55°35’N 38°08’E
On Forums: 13 years 3 months
Thanks: 102367 time(s)
Unknown


(IMG:https://metalarea.org/images/audiocovers/2021_Sep/acov_tid355437_thumb.jpg)

*Artist: Blutfaust
*Album: Muerte Al Mundo Moderno
*Year: 2021
*Genre: Black Metal
*Country: Spain (IMG:https://metalarea.org/forum/style_images/flags/Spain.png)
*Format: mp3@CBR320kbps
*Size: 82MB

Tracklist:
1.Presagios de Mal Augurio (Intro) 02:27
2.Desazón y Podredumbre 04:34
3.Muerte al Mundo Moderno 05:39
4.Hacia la Montaña 04:48
5.Tumba de Profanos 05:37
6.Europa Desnuda 04:02
7.Bastardos del nuevo Mundo 03:31
8.True Blackness (Satanic Warmaster cover) 04:07
******************************
Total playing time: 34:45



Technical info
(IMG:https://metalarea.org/images/spectrogram/2021_Sep/e4abc794dba5121805e9b2aea2f466cb.png)
Input File: 02 Desazón y Podredumbre.mp3
Channels : 2
Sample Rate : 44100
Precision : 16-bit
Duration : 00:04:34.64 = 12111756 samples = 20598.2 CDDA sectors
File Size : 11.1M
Bit Rate : 324k
Sample Encoding: MPEG audio (layer I, II or III)
Comments :
Title=Desazón y Podredumbre
Artist=Blutfaust
Album=Muerte al Mundo Moderno
Tracknumber=2
Year=2021
Genre=Black Metal



Register


Go to the top of the page
  Insert nick Quick quote
+Quote Post
 
Start new topic
Replies (1 - 2)
post Sep 13 2021, 20:25:01
Post #2

Пять Литров
*****
Group: Металариец
Posts: 429
Releases: 18
On Forums: 8 years 1 month
Thanks: 763 time(s)
Iceland


"If you can't understand the lyrics, please, LEARN SPANISH.
It's good for your health."

Hahaha, i like N.W.
Go to the top of the page
  Insert nick Quick quote
+Quote Post
post Sep 14 2021, 21:09:02
Post #3

Два Литра
**
Group: Завсегдатай
Posts: 112
Releases: 0
From: Москва
On Forums: 15 years 9 months
Thanks: 20 time(s)
Russian Federation


Вроде ничего так, а до конца не стал слушать. Не впечатлило.
Go to the top of the page
  Insert nick Quick quote
+Quote Post

Reply to this topicStart new topic
1 User(s) are reading this topic (1 Guests and 0 Anonymous Users)
0 Members:

 



- Lo-Fi Version Support form
Copyrights and abuse reports form
Time is now: 16th October 2021 - 10:34:36