Welcome Guest ( Log In | Register )

 
Reply to this topicStart new topic
> Medieval - One Morbid... A Poser Holocaust [compilation] (2014), Heavy Metal (D)
post Sep 12 2021, 20:23:26
Post #1

Маньяк
**********
Group: Металариец
Posts: 1,239
Releases: 232
On Forums: 2 years 10 months
Thanks: 3508 time(s)
Canada


(IMG:https://metalarea.org/images/audiocovers/2021_Sep/acov_tid355438_thumb.jpg)

*Artist: Medieval
*Album: One Morbid... A Poser Holocaust [compilation]
*Year: 2014
*Genre: Heavy Metal
*Country: United States (IMG:https://metalarea.org/forum/style_images/flags/United%20States.png)
*Format: mp3@CBR320kbps
*Size: 184MB

Tracklist:
01. Dreamer 03:38
02. Life After Death 02:46
03. Warriors 03:41
04. Clean Record (Don't Got No) 01:33
05. Plague 02:45
06. I Don't Like You 02:00
07. How I Feel 02:44
08. Hype 03:09
09. Lords of Darkness 03:26
10. Kill Me Now 04:27
11. Rules of Fools 02:58
12. Medieval 03:17
13. Hell Is Full 02:43
14. All Knobs to the Right 02:29
15. Black Assassin 02:49
16. All I Got 02:58
17. Burnt Fuck (instrumental) 02:41
18. Blood and Anger 03:27
19. World War IV 02:26
20. Face of Death 02:42
21. All Knobs to the Right 04:06
22. All I Got The Loser (Vardis cover) 06:49
23. Rules of Fools 02:37
24. Death is Beauty 04:01
25. World War IV 02:56
26. Reign of Terror 03:45
27. Hell Is Full 03:01
28. Blood and Anger 03:33
29. Peter Gunn Theme (instrumental) 02:17
30. Kimba the White Lion 01:45
31. Ace of Spades (Motörhead cover) 03:14
******************************
Total playing time: 1:36:43

Extended info
vinyl rip

No audio cleaning used.
Recorded from first play, but there is surface noise.
Either the assholes at NWN played it before selling to me, (like some 7 inches I bought from them), or the pressing plant used shitty, inferior vinyl.

Anyways, this has a nice fat sound compared to the tapes/cd-r's in my opinion.
Kind of sucks there is that noticeable surface noise between tracks, when music is not played, but it is what it is.

Enjoy.

https://www.metal-archives.com/bands/Medieval/1869

medieval-kills.com

Tracks # 01-12 -1983 Cassette Album demo.
Tracks # 13-19 -1984 All Knobs to the Right demo.
Tracks # 20-31 -1986 A Day in the Wreck Room demo.


Technical info
(IMG:https://metalarea.org/images/spectrogram/2021_Sep/138e321598e574216e4b8f13ee8be95f.png)
Input File: 01. Dreamer.mp3
Channels : 2
Sample Rate : 44100
Precision : 16-bit
Duration : 00:03:38.86 = 9651858 samples = 16414.7 CDDA sectors
File Size : 7.03M
Bit Rate : 257k
Sample Encoding: MPEG audio (layer I, II or III)
Comments :
Artist=Medieval
Album=One Morbid... A Poser Holocaust [compilation]
Year=2014
Genre=Heavy Metal



Register


Go to the top of the page
  Insert nick Quick quote
+Quote Post

Reply to this topicStart new topic
1 User(s) are reading this topic (1 Guests and 0 Anonymous Users)
0 Members:

 



- Lo-Fi Version Support form
Copyrights and abuse reports form
Time is now: 5th December 2021 - 02:19:25