Welcome Guest ( Log In | Register )

> Releases Upload / Добавление релизов

Добавить релиз тут / Click here to add release
Рекомендованные обменники / Recommended file shares

> La Mer - Everything Is Falling Apart (2021), Avantgarde/Post-Black Metal
post Sep 12 2021, 21:18:10
Post #1

Правь статус, ####!616
**************
Group: Металариец
Posts: 6,972
Releases: 5417
From: 55°35’N 38°08’E
On Forums: 13 years 2 months
Thanks: 99395 time(s)
Unknown


(IMG:https://metalarea.org/images/audiocovers/2021_Sep/acov_tid355439_thumb.jpg)

*Artist: La Mer
*Album: Everything Is Falling Apart
*Year: 2021
*Genre: Avantgarde/Post-Black Metal
*Country: United Kingdom (IMG:https://metalarea.org/forum/style_images/flags/United%20Kingdom.png)
*Format: mp3@CBR320kbps
*Size: 92MB

Tracklist:
1.Fertile Fields Of Unrest 03:44
2.Sacrifice 04:47
3.Father 04:08
4.In The Name Of The Earth 03:40
5.Everything Is Falling Apart 03:32
6.Angel IV 03:06
7.Czarne Kolędy 03:45
8.Man Has A Hole In His Heart 05:06
9.Death And All Its Commanders 04:15
10.Hungry (La Mer X Tattva) 03:56
******************************
Total playing time: 39:59

Preview 1

Technical info
(IMG:https://metalarea.org/images/spectrogram/2021_Sep/e95a9815bb873ffb37a53ac43d989ab7.png)
Input File: 01 Fertile Fields Of Unrest.mp3
Channels : 2
Sample Rate : 44100
Precision : 16-bit
Duration : 00:03:44.69 = 9909005 samples = 16852 CDDA sectors
File Size : 9.05M
Bit Rate : 322k
Sample Encoding: MPEG audio (layer I, II or III)
Comments :
Title=Fertile Fields Of Unrest
Artist=La Mer
Album=Everything Is Falling Apart
Tracknumber=1
Year=2021
Genre=Black Metal



Register


Go to the top of the page
  Insert nick Quick quote
+Quote Post
 
Start new topic
Replies (1 - 2)
post Sep 13 2021, 07:13:30
Post #2

Три Литра
***
Group: Завсегдатай
Posts: 273
Releases: 0
From: минск сити
On Forums: 12 years 2 months
Thanks: 114 time(s)
Belarus


Blackened Marilyn Manson. (IMG:style_emoticons/default/smile1.gif)
Для разнообразия послушать можно.


Thanks:
(1) ingram,
Go to the top of the page
  Insert nick Quick quote
+Quote Post
post Sep 13 2021, 10:24:28
Post #3

Литр
*
Group: Подсевший
Posts: 55
Releases: 0
From: Zürich
On Forums: 3 months 1 week
Thanks: 13 time(s)
Switzerland


Весьма неплохо слушается. Действительно, местами Мэнсон, местами британский готик-рок, на все это как шуба на селедку положено постблэковое брезжание, которое скорее мешает здесь, но общее впечатление позитивное.
Go to the top of the page
  Insert nick Quick quote
+Quote Post

Reply to this topicStart new topic
2 User(s) are reading this topic (2 Guests and 0 Anonymous Users)
0 Members:

 



- Lo-Fi Version Support form
Copyrights and abuse reports form
Time is now: 24th September 2021 - 00:55:55