Welcome Guest ( Log In | Register )

> Releases Upload / Добавление релизов

Добавить релиз тут / Click here to add release
Рекомендованные обменники / Recommended file shares

> Grave Torture - A Constant Form Of Art (2021), Melodic Blackened Death Metal
post Sep 13 2021, 01:47:48
Post #1

Правь статус, ####!111
**************
Group: Металариец
Posts: 27,412
Releases: 19881
From: Г.Харьков
On Forums: 9 years 4 months
Thanks: 400988 time(s)
Unknown


(IMG:https://metalarea.org/images/audiocovers/2021_Sep/acov_tid355440_thumb.jpg)

*Artist: Grave Torture
*Album: A Constant Form Of Art
*Year: 2021
*Genre: Melodic Blackened Death Metal
*Country: United Kingdom (IMG:https://metalarea.org/forum/style_images/flags/United%20Kingdom.png)
*Format: mp3@CBR320kbps
*Size: 54MB

Tracklist:
1. Intro 00:55
2. A constant form of art 03:03
3. A gesture of blood/ a dawning order 02:55
4. Praying to the wrong sun 02:04
5. Crimson tinged memoirs 04:02
6. Repentless 01:10
7. As the world stops turning 02:51
8. Back to sullen earth 03:28
9. Tortureology 02:28
10. Outro 00:55
******************************
Total playing time: 23:51




Extended info
Steve Sharp All instruments
See also: Worship the Sacrifice
Caius Maximus Vocals


Technical info
(IMG:https://metalarea.org/images/spectrogram/2021_Sep/e7cc4aad6a80e9f04478b864e3bdf922.png)
Input File: 05. Crimson Tinged Memoirs.mp3
Channels : 2
Sample Rate : 44100
Precision : 16-bit
Duration : 00:04:02.80 = 10707480 samples = 18210 CDDA sectors
File Size : 9.71M
Bit Rate : 320k
Sample Encoding: MPEG audio (layer I, II or III)
Comments :
Title=Crimson Tinged Memoirs
Artist=Grave Torture
Album=A Constant Form of Art
Tracknumber=5
Year=2021
Genre=Metal



Register


Go to the top of the page
  Insert nick Quick quote
+Quote Post
 
Start new topic
Replies (1 - 1)
post Sep 13 2021, 08:03:52
Post #2

Маньяк
**********
Group: Металариец
Posts: 1,149
Releases: 1
From: APATIN, SERBIA, АПАТИН, СЕРБИЯ
On Forums: 13 years 11 months
Thanks: 2732 time(s)



Flac

Register


Thanks:
Go to the top of the page
  Insert nick Quick quote
+Quote Post

Reply to this topicStart new topic
1 User(s) are reading this topic (1 Guests and 0 Anonymous Users)
0 Members:

 



- Lo-Fi Version Support form
Copyrights and abuse reports form
Time is now: 24th September 2021 - 00:33:59