Welcome Guest ( Log In | Register )

> Releases Upload / Добавление релизов

Добавить релиз тут / Click here to add release
Рекомендованные обменники / Recommended file shares

 
Reply to this topicStart new topic
> Darkness My Desire - Summoned From The Void (2021), Black Metal
post Sep 13 2021, 02:35:25
Post #1

Правь статус, ####!111
**************
Group: Металариец
Posts: 27,411
Releases: 19881
From: Г.Харьков
On Forums: 9 years 4 months
Thanks: 400975 time(s)
Unknown


(IMG:https://metalarea.org/images/audiocovers/2021_Sep/acov_tid355441_thumb.jpg)

*Artist: Darkness My Desire
*Album: Summoned From The Void
*Year: 2021
*Genre: Black Metal
*Country: Canada (IMG:https://metalarea.org/forum/style_images/flags/Canada.png)
*Format: mp3@CBR320kbps
*Size: 78MB

Tracklist:
1. Intro 00:38
2. Summoned From The Void 06:42
3. Defectum In Exorcismo 02:18
4. Bog Burial 03:38
5. All I Want Is For You To Suffer 04:14
6. Lunar Death 06:16
7. Rain Down Hellfire From Asgard/Odin's Revenge 03:48
8. Death Throne 04:43
9. Outro 01:25
******************************
Total playing time: 33:42




Extended info
Chris Buchanan Guitars, Drums
See also: ex-Sacrificial Chamber
Nico Bijl Vocals, Bass
See also: Just Stay Fucking Dead, ex-Black Reign, ex-Trær, ex-Sacrificial Chamber


Technical info
(IMG:https://metalarea.org/images/spectrogram/2021_Sep/384039f61b887d8c56f6b2f4067a8d52.png)
Input File: 02 - Summoned From The Void.mp3
Channels : 2
Sample Rate : 44100
Precision : 16-bit
Duration : 00:06:42.00 = 17728200 samples = 30150 CDDA sectors
File Size : 16.3M
Bit Rate : 324k
Sample Encoding: MPEG audio (layer I, II or III)
Comments :
Title=Summoned From The Void
Artist=Darkness My Desire
Album=Summoned From The Void
Tracknumber=2
Year=2021-09-13
Genre=Metal
Discnumber=1



Register


Go to the top of the page
  Insert nick Quick quote
+Quote Post

Reply to this topicStart new topic
2 User(s) are reading this topic (2 Guests and 0 Anonymous Users)
0 Members:

 



- Lo-Fi Version Support form
Copyrights and abuse reports form
Time is now: 24th September 2021 - 00:08:15