Welcome Guest ( Log In | Register )

> Releases Upload / Добавление релизов

Добавить релиз тут / Click here to add release
Рекомендованные обменники / Recommended file shares

> Rém - Berek (2020), Black Metal
post Sep 13 2021, 02:55:36
Post #1

Правь статус, ####!111
**************
Group: Металариец
Posts: 27,411
Releases: 19881
From: Г.Харьков
On Forums: 9 years 4 months
Thanks: 400983 time(s)
Unknown


(IMG:https://metalarea.org/images/audiocovers/2021_Sep/acov_tid355442_thumb.jpg)

*Artist: Rém
*Album: Berek
*Year: 2020
*Genre: Black Metal
*Country: Hungary (IMG:https://metalarea.org/forum/style_images/flags/Hungary.png)
*Format: mp3@CBR320kbps
*Size: 96MB

Tracklist:
1. Dereng 04:09
2. Köd 03:38
3. Láp 04:19
4. Avar 03:53
5. Berek 03:52
6. Meder 03:19
7. Vadász 02:59
8. Estvéled 03:18
9. Zala 05:01
10. Hidden Track 07:15
******************************
Total playing time: 41:43




Technical info
(IMG:https://metalarea.org/images/spectrogram/2021_Sep/0f6ba531ba149091a912fc95d69c3cdd.png)
Input File: 09 - Zala (feat. Leiru).mp3
Channels : 2
Sample Rate : 44100
Precision : 16-bit
Duration : 00:05:01.00 = 13274100 samples = 22575 CDDA sectors
File Size : 12.2M
Bit Rate : 325k
Sample Encoding: MPEG audio (layer I, II or III)
Comments :
Title=Zala (feat. Leiru)
Artist=Rem/Leiru
Album=Berek
Tracknumber=9
Year=2020-09-10
Genre=Metal
Discnumber=1



Register


Go to the top of the page
  Insert nick Quick quote
+Quote Post
 
Start new topic
Replies (1 - 1)
post Sep 14 2021, 16:47:57
Post #2

Два Литра
**
Group: Завсегдатай
Posts: 121
Releases: 3
On Forums: 3 years 6 months
Thanks: 305 time(s)
Unknown


...Oh my, what great big FLACs you have...

Register


Thanks:
(1) wreak,
Go to the top of the page
  Insert nick Quick quote
+Quote Post

Reply to this topicStart new topic
2 User(s) are reading this topic (2 Guests and 0 Anonymous Users)
0 Members:

 



- Lo-Fi Version Support form
Copyrights and abuse reports form
Time is now: 24th September 2021 - 00:23:53