Welcome Guest ( Log In | Register )

> Releases Upload / Добавление релизов

Добавить релиз тут / Click here to add release
Рекомендованные обменники / Recommended file shares

 
Reply to this topicStart new topic
> Runascent - Falls And Rises [ep] (2021), Melodic Death Metal
post Sep 13 2021, 04:05:26
Post #1

Правь статус, ####!111
**************
Group: Металариец
Posts: 27,431
Releases: 19916
From: Г.Харьков
On Forums: 9 years 4 months
Thanks: 401773 time(s)
Unknown


(IMG:https://metalarea.org/images/audiocovers/2021_Sep/acov_tid355443_thumb.jpg)

*Artist: Runascent
*Album: Falls And Rises [ep]
*Year: 2021
*Genre: Melodic Death Metal
*Country: Japan (IMG:https://metalarea.org/forum/style_images/flags/Japan.png)
*Format: mp3@CBR320kbps
*Size: 54MB

Tracklist:
1. On the Brink of Collapse 01:37
2. Goddess 05:28
3. Deadlock 04:21
4. Final Chance 03:22
5. Whiteout 04:28
6. Travelers 04:09
******************************
Total playing time: 23:25



Technical info
(IMG:https://metalarea.org/images/spectrogram/2021_Sep/8be01c2a6b1af0c9ecad560e0acc8b0c.png)
Input File: 05 - Whiteout.mp3
Channels : 2
Sample Rate : 44100
Precision : 16-bit
Duration : 00:04:28.00 = 11818800 samples = 20100 CDDA sectors
File Size : 10.8M
Bit Rate : 323k
Sample Encoding: MPEG audio (layer I, II or III)
Comments :
Title=Whiteout
Artist=Runascent
Album=Falls and Rises
Tracknumber=5
Year=2021-09-10
Discnumber=1



Register


Go to the top of the page
  Insert nick Quick quote
+Quote Post

Reply to this topicStart new topic
1 User(s) are reading this topic (1 Guests and 0 Anonymous Users)
0 Members:

 



- Lo-Fi Version Support form
Copyrights and abuse reports form
Time is now: 25th September 2021 - 13:35:04