Welcome Guest ( Log In | Register )

> Releases Upload / Добавление релизов

Добавить релиз тут / Click here to add release
Рекомендованные обменники / Recommended file shares

> Never The Dead - The Teeth Of The End [ep] (2020), Atmospheric Doom Metal
post Sep 13 2021, 04:24:42
Post #1

Правь статус, ####!111
**************
Group: Металариец
Posts: 27,412
Releases: 19881
From: Г.Харьков
On Forums: 9 years 4 months
Thanks: 400990 time(s)
Unknown


(IMG:https://metalarea.org/images/audiocovers/2021_Sep/acov_tid355444_thumb.jpg)

*Artist: Never The Dead
*Album: The Teeth Of The End [ep]
*Year: 2020
*Genre: Atmospheric Doom Metal
*Country: Sweden (IMG:https://metalarea.org/forum/style_images/flags/Sweden.png)
*Format: mp3@CBR320kbps
*Size: 29MB

Tracklist:
1. The Teeth of the End 05:29
2. Cold Kingdom 07:10
******************************
Total playing time: 12:39



Extended info
Håkan Stuvemark Bass, Guitars, Keyboard, Synth
See also: Consumption, Crossbow Suicide, Ghoulhouse, Grisly, Pale King, PermaDeath, Reek, Rex Demonus, Skineater, Wombbath, Henry Kane (live), ex-In Thy Dreams, ex-Vicious
Jon Rudin Drums
See also: Dead Sun, Dehumanaut, Just Before Dawn, Monstrous, Pale King, Stygian Dark, Those Who Bring the Torture, Wombbath, Wormveil, ex-From Ruin, ex-Ashcloud, ex-Body Harvest
Kjetil Lynghaug Guitars
See also: Echelon, Heir Corpse One, Johansson & Speckmann, Monstrous, Mordenial, Paganizer, Stass, Those Who Bring the Torture
Rogga Johansson Vocals
See also: Bloodgut, Dead Sun, Down Among the Dead Men, Echelon, Eye of Purgatory, Fondlecorpse, Furnace, Ghoulhouse, God Cries, Grisly, Heir Corpse One, House by the Cemetary, Humanity Delete, Johansson & Speckmann, Lobotomy Dept, Massacre, Megascavenger, Metal Against Coronavirus, Monstrous, Necrogod, Paganizer, PermaDeath, Pile of Skulls, Putrevore, Reek, Revolting, Ribspreader, Rogga Johansson, Severed Limbs, Stass, Stygian Dark, Svitjod, The Cleaner and Mr. Filth's Van Murders, The Dead Cold, The Skeletal, Those Who Bring the Torture, To Descend, ex-Carve, ex-Demiurg, ex-Eaten, ex-Foreboding, ex-Minotaur Head, ex-Skeletal Spectre, ex-Swarming, ex-Terminal Grip, ex-The Grotesquery, Catacomb, Disruptor, Troikadon, ex-Banished from Inferno, ex-Graveyard After Graveyard, ex-Sinners Burn, ex-The 11th Hour, ex-Deranged (live), ex-Bone Gnawer, ex-To the Gallows
Lars Palmqvist Vocals
See also: Dautha, Last Temptation, PermaDeath, Rex Demonus, Scar Symmetry, The Hangmans Sorrow, ex-BackWardness, ex-Mirador



Technical info
(IMG:https://metalarea.org/images/spectrogram/2021_Sep/0cd2f61c8ba3a18e9a21a1443ebb3ea7.png)
Input File: 02 - Cold Kingdom.mp3
Channels : 2
Sample Rate : 44100
Precision : 16-bit
Duration : 00:07:10.00 = 18963000 samples = 32250 CDDA sectors
File Size : 17.3M
Bit Rate : 322k
Sample Encoding: MPEG audio (layer I, II or III)
Comments :
Title=Cold Kingdom
Artist=Never The Dead
Album=The Teeth of the End
Tracknumber=2
Year=2020-12-16
Genre=Metal
Discnumber=1



Register


Go to the top of the page
  Insert nick Quick quote
+Quote Post
 
Start new topic
Replies (1 - 2)
post Sep 13 2021, 19:06:13
Post #2

Правь статус, ####!111
**************
Group: Металариец
Posts: 27,412
Releases: 19881
From: Г.Харьков
On Forums: 9 years 4 months
Thanks: 400990 time(s)
Unknown


Rogga вокалит))
Go to the top of the page
  Insert nick Quick quote
+Quote Post
post Sep 13 2021, 19:16:08
Post #3

Ёлд ХеллоВяйне
Group Icon
Group: V.I.P
Posts: 32,068
Releases: 144
From: Питер
On Forums: 14 years 10 months
Thanks: 20090 time(s)
Russian Federation


QUOTE(Samaritianin @ 13th September 2021 - 21:06:13) *
Rogga вокалит))


Суперская антиреклама))


Thanks:
Go to the top of the page
  Insert nick Quick quote
+Quote Post

Reply to this topicStart new topic
2 User(s) are reading this topic (2 Guests and 0 Anonymous Users)
0 Members:

 



- Lo-Fi Version Support form
Copyrights and abuse reports form
Time is now: 24th September 2021 - 01:02:06