Welcome Guest ( Log In | Register )

> Releases Upload / Добавление релизов

Добавить релиз тут / Click here to add release
Рекомендованные обменники / Recommended file shares

> Ilti Milta - Sectors (2013), Progressive/Thrash Metal
post Sep 13 2021, 08:40:47
Post #1

Join my religion, or die
**************
Group: Металариец
Posts: 10,986
Releases: 1684
From: Питера
On Forums: 11 years 11 months
Thanks: 22275 time(s)
Russian Federation


(IMG:https://metalarea.org/images/audiocovers/2021_Sep/acov_tid355446_thumb.jpg)

*Artist: Ilti Milta
*Album: Sectors
*Year: 2013
*Genre: Progressive/Thrash Metal
*Country: Norway (IMG:https://metalarea.org/forum/style_images/flags/Norway.png)
*Format: mp3@CBR320kbps
*Size: 92MB

Tracklist:
01. Sectors Red 01:31
02. Masquerade 04:43
03. My Last Mistress 02:33
04. Maze 04:04
05. Like the Sun 04:06
06. The Ravensburger Nightmare '13 03:55
07. Vibes 04:45
08. B.O.B. 01:50
09. Love of My Life 04:20
10. Tides 07:22
11. Sector Green 01:26
******************************
Total playing time: 40:35

(IMG:https://metalarea.org/images/youtube.png)

Technical info
(IMG:https://metalarea.org/images/spectrogram/2021_Sep/a818ec4289e0777903216d38dd15a934.png)
Input File: 02 Masquerade.mp3
Channels : 2
Sample Rate : 44100
Precision : 16-bit
Duration : 00:04:43.00 = 12480300 samples = 21225 CDDA sectors
File Size : 11.4M
Bit Rate : 322k
Sample Encoding: MPEG audio (layer I, II or III)
Comments :
Title=Masquerade
Artist=Ilti Milta
Album=2013 Sectors
Tracknumber=02/11
Year=2013
Genre=Thrash Metal



Register


Go to the top of the page
  Insert nick Quick quote
+Quote Post
 
Start new topic
Replies (1 - 2)
post Sep 17 2021, 11:19:40
Post #2

21st Century Schizoid Man
**************
Group: Металариец
Posts: 6,939
Releases: 84
From: Pdmsk
On Forums: 13 years 4 months
Thanks: 5846 time(s)
Russian Federation


В теги также можно добавить: Hard Rock. Непривычный замес. Я пока не въехал.
Go to the top of the page
  Insert nick Quick quote
+Quote Post
post Sep 17 2021, 12:59:19
Post #3

Два Литра
**
Group: Завсегдатай
Posts: 138
Releases: 0
On Forums: 4 years 5 months
Thanks: 49 time(s)
Russian Federation


Отличная группа и отличный альбом. Это настоящий прог-трэш. По настрою чем-то напомнило их земляков Equinox. Жаль, что сейчас подобного не делают или почти не делают.
Go to the top of the page
  Insert nick Quick quote
+Quote Post

Reply to this topicStart new topic
1 User(s) are reading this topic (1 Guests and 0 Anonymous Users)
0 Members:

 



- Lo-Fi Version Support form
Copyrights and abuse reports form
Time is now: 24th September 2021 - 01:53:41